&title=Wish a Shooting Star
&artist=森羅万象
&first=0
&des=M,O: Holinality; ReM: Glowen
&clock_count=4
&lv_5=13
&lv_6=13+
&lv_7=星
&inote_5=(190)
{1},
{16}
E7/B7,,E3/B3,,E5/B5,,E1/B1,,
,,,,E3/B2,,E7/B6,,
E5/B4,,E1/B8,,,,2,,
36,,5,4,5,,,,
3h[8:1],,5h[8:1],,4h[8:1],,6,,
,,,,6,,4/6,,
6,,36,,2b/7b,,,,
36,,8,1,8,1,8,1,
{16}
7x<4[8:1],,,,2v5[8:1]/7,,,,
6<2[8:2]/2,,,,6,,,,
,,,,4>1[8:1],,,,
6qq8[8:3]/4,,,,6/2,,,,
,,,,2>6[4:1],,,,
6<2[4:1],,,,2,,,,
5h[8:2],,,,3h[8:2],,,,
7h[8:2],,,,1,,,,
25,,6,,74,,3h[4:1],,
,,6,,7,,8h[4:1],,
,,2,,3,,4,,
6,,3,4,2,,5,,
3,,6,5,7,,4h[8:2],,
,,6,,53,,2b-6[8:1],,
,,,,,,,,
,,8,,63,,,,
{16}
5-7[8:1],,3,,5,,,,
8-4[8:1],,2,,8,,,,
3,,5,,2h[4:1],,,,
6,,4,,7h[4:1],,,,
4-2[8:1],,6,,4,,,,
1-5[8:1],,7,,1,,,,
4,,6,,35,,2,,
17,,6,,35,,2,,
1/7h[4:1],,,,,,1,,
6,,2-6[8:1],,,,2,,
,,,,,,4h[8:1],,
5-8[8:1],,,,3/5,,,,
2,,7,1,6,,6/2,,
,,2,,3,,4/6,,
,,36,,25,,3,4,
2,,6,5,7,,36,,
2>5[8:1],,8,,2,,,,
7p3[8:1],,1,,7,,,,
2-6[8:1],,8,,2,,,,
8-4[8:1],,1,,8,,,,
3>8[8:1],,5,,5/3,,,,
6<1[8:1],,4,,4/6,,,,
2,,35,,7,,46,,
1,,35,,8,,64,,
1h[8:2],,,,7,,7v4[8:1],,
,,7/3>6[8:3],,3,,,,
,,,,,,5,,
3,,6,,2,,7pp6[4:2],,
,,,,,,,,
3pp2[4:2],,,,,,,,
8,,8,,,,7,,
6,,4,5,4,,6h[4:1]/3,,
,,3,,3>8[8:2],,,,
3/5,,,,6,,2h[4:1],,
,,7,,7<4[8:2],,,,
7/1h[8:1],,,,,,,,
1,,,,1v6[8:1]/7,,,,
1/3,,,,4,,36,,
,,4,5,3,,5,4,
6h[8:3],,1,,2,,3,,
,,8,,1/7,,2,5,
3h[8:2],,7,,6,,5/3,,
,,1,,8/2,,7,4,
6h[8:2],,2,,3,,4/6,,
3h[4:1]/5,,,,6,,4,,
35,,2,,46,,7,,
25,,1,,74,,8,,
35,,1,,46,,8,,
2h[16:4],,8,,7,,6h[16:4],,
1,,2,,3,,4,,
5bhx[8:5],,,,,,E1,,
E2,,E3,,E4f,,,,
{16}
,,,,,,,,
2v5[8:1],,8,,2/8-4b[8:1],,,,
8b,,2,,2h[8:2],,,,
7v4[8:1],,1qq3[8:4],,7,,1,,
,,5,,5,,,,
6,,6,,2h[8:2],,,,
5b,,3,,6h[4:1],,,,
1>4[8:1],,7qq4[8:4],,1,,7,,
,,,,,,2h[8:2],,
,,8,,36,,,,
5b,,3,,7h[8:2],,,,
2v5[8:1],,8pp6[8:4],,2,,8,,
,,4,,4,,,,
3,,3,,7h[8:2],,,,
4b,,6,,3h[4:1],,,,
8<5[8:1],,2pp5[8:4],,8,,2,,
,,,,,,7h[8:2],,
,,1,,63,,,,
{16}
2qq3[8:3],,,,,,6,,
6qq7[8:3],,,,,,1,,
1,,,,2,,5/3,,
,,4h[4:1]/6,,7,,8,,
2v5[8:1]/8,,,,2/7,,8b-6>5b[8:1],,
,,8b-2>3b[8:1],,,,8b,,
,,,,,,7<4[8:1],,
3-1[8:1],,7,,3,,,,
5,,3,,7h[8:2],,,,
2,,64,,8,,3b-5-8[8:2]/5b-3-8[8:2],,
,,,,,,,,
Ch[8:1],,,,,,,,
8-4[8:1],,4<7[8:1],,8,,,,
2-4[8:1],,1-6<3b[8:4],,2,,1b,,
,,4,,4h[4:2],,,,
8,,7,,6,,,,
1-5[8:1],,5>2[8:1],,1,,,,
7-5[8:1],,8-3>6b[8:4],,7,,8b,,
,,5,,5h[4:2],,,,
1,,2,,3,,,,
7v4[8:1],,4<8b[8:2],,7,,,,
1,,2,,3,,4/8,,
,,7,,3-5[8:1]/6,,,,
7-3[8:1]/3,,,,7,,,,
1,,1,,18,,7,2,
5,4,6,3,8,,1xh[8:2],,
,,5,,36,,3,5,
4h[8:1],,6,3,8,1,6,,
3,,6,5,8,,4,,
6,,3,4,1,,5,,
2,,8,1,7,,2,,
8,1,7,2,6,3,5,4hx[16:9],
5bhx[2:1],,,,,,,,
,,,,,,45,,
,,8,,37,,,,
26,,3,5,1,,6,4,
8v3[8:1],,,,8/1,,2v5[8:1],,
,,2,,7,,4x/6x,,
3,5,2h[8:1],,,,6,4,
7h[8:1],,,,2,,36,,
1v6[8:1],,,,1/8,,7v4[8:1],,
,,7,,2,,5x/3x,,
6,4,7h[8:1],,,,3,5,
2h[8:1],,,,7,,63,,
8h[4:1],,1,,2,,3h[4:1],,
8,,7,,6,,3,,
45,,36,,5,1,6,2,
7,3,8,4,7bhx[16:12],3bhx[16:11],,,
,,,,,,,,
,,,,,,,,
{16}
4bh[8:10],,,,,,7b<2b[8:5],,
,,,,,,,,
,,,,,,,,
,,6,5,7,4,7pp6[8:4],,
3h[4:1],,,,,,,,
3,,3,,5,,5,,
,,1,,25,,6,,
74,,3,,25,,6,,
74,,8,,2,,6h[8:3],,
,,,,,,4h[4:1],,
{24}
,,,5,,,
2,,3,,4,,
6,,7,,8,,
3,,2,,1,,
{16}
8-4[8:1],,7,1,8,,3h[4:1],,
,,5,,3,,6,4,
7h[4:1],,4,,4,,6,3,
5,,35,,46,,35,,
{16}
,,E7,,E6,,E5,,
E3,,E2,,E1,,E6,E5,
E4,,C,,,,,,
B6,,C,,B2,,2bx>2>2>4b[16:33],,
,,,,,,,,
,,,,,,,,
6p4[8:5],,,,,,,,
,,,,,,,,
,,E6,E7,E8,,,,,,,,,,,,
,,,,,,,,,,,,,,,,
E
&inote_6=(190)
{1},
{8}1-5[8:1],5-1[8:1],B1,,,,7-3[8:1],3-7[8:1],
{8}B7,,,,E2,{16}E7,E6,E5,,,,
{8}8-4[8:1],4-8[8:1],B8,,,,6-2[8:1],2-6[8:1],
{8}B6,,,,1>7[8:1],{32}E8,E1,E2,E3,E4,E5,E6,E7f,,,,,
{8}1-4[8:1],,5-1[8:1],,3>4[16:5],,C,,
{8},,6<3[8:2],,3>6[8:2],,E5,,
{8},,4qq2[16:3],,5v8[8:1],,3>7[8:2],,
{8}7>3[8:2],,{12}4<1[12:5],5<1[12:4],6<1[12:3],7-3[8:1],,,B7,,,
{8}2>4[8:1],5<8[8:1],2<8[8:1],5v8[8:1],2-5[8:1],,E3,,
{8}7-4[8:1],7-3[8:1],7w3[8:1],,,,1<2[8:2],,
{8}Cf,,7v4[8:1],7-3[8:1],,,5s1[16:7],1bs5[8:5],
{8},,,,,,C,,
{8}E7,,E8,,E1,,E2,,
{8}E6,,E5,,E4,,E3,,
{8}8<3[8:4],,E1,,E6,,E3,,
{8}1>6[8:4],,E1,,E4,,E7,,
{8}8p4[8:1],,E8,,2-6[8:4],,,,
{8},,,,7-3[8:1],,{24}B7f,,,,,,
{8}1>4[8:1],,C,8V25[16:3],,,,7>6[8:2],
{8},,,,8w4[8:1],,B8f,,
{8}6-1[8:1],,B5,,2<7[8:1],,B3,,
{8}5<8[8:1],,{24}E2,E3,E4,{8},5-2[8:1],,{24}E8,E7,E6,{8},
{8}1-4[8:1],4-1[8:1],E2,,7-2[8:1],2-7[8:1],E8,,
{8}3-6[8:1],6-3[8:1],3-7[8:1],7-1[8:1],7-4[8:1],,{24}B6,B5,,,,,
{8}2-5[8:1],,6-8[8:1],6-3[8:1],,,1qq7[16:3],,
{8}2>5[8:1],,,,8-5[8:1],5-8[8:1],8>3[8:1],3q6[8:3],
{8},,C,,2q4[8:3],,C,,7pp5[8:4],,E5,,Cf,,,1>7[8:4],
{8},,B4,,C,,,8>6[8:4],
{8},,E6,,E4,,E2,,
{8}8<5[8:1],,2p6[8:1],,4>1[8:1],,5<4[8:4],5p4[8:3],
{8},,,,,E6,E3,8z4[8:3],,,,,,E3,E6,8s4[8:3],
{8},,5-1[8:1],,5>2[8:1],,5<8[8:1],,
{8}1pp6[8:4],,E5,E6,E7,E8,E1,,
{8}5qq8[8:4],,E1,E8,E7,E6,E5,1pp4[8:3],
{8}5pp8[8:3],,,,,,3>7[8:2],,
{16}7bx<7[16:8],6bx>6[16:8],5bx>5[16:8],,,,{8},,,4-8[8:2],,
{8},,,,1>4[8:1],,,,
{8}7-2-5[8:2],,5-8-3[8:2],,3q7[8:1],,Cf,,
{8}2-5-8[8:2],,8-3-6[8:2],,6q2[8:1],,Cf,,
{8}1-7[8:1],,2-6[8:1],,3-5[8:1],,3-8[8:1],,
{8}7-4[8:1],,1-6[8:1],,3w7[8:1],,B3f,,
{8}1-7[8:1],7-3[8:1],1-5[8:1],,1-4[8:1],,E2f,,
{8}5-3[8:1],3-7[8:1],5-1[8:1],,5-8[8:1],,E6f,,
{8}2-6[8:1],6-2[8:1],B2,,8-4[8:1],7-3[8:1],8V25[8:2],7-5[8:1],
{8},,,4>1[8:1],,,Cf,,
{8}8-3[8:1],,4-1[8:1],,7-4[8:1],,C,,
{8}3-8[8:1],,5-1[8:1],,2-6[8:1],,E8,,
{8}4V26[8:2],,6pp8[16:3],7v4[8:1],,7V13[16:3],,5-1[8:1],
{8},,,A2,A8,A4,A6,,
{8}3-7[8:1],7-1[8:1],B3f,,6-2[8:1],2>8[8:3],B6f,1-5[8:1],
{8},,,,4-8[8:1],,{24}A7,A6,A5,,,,
{24}1-7[24:1],2-6[24:1],3-5[24:1],,,,{8},,4-8[8:1],,,,
{24}1-7[24:1],2-6[24:1],3-5[24:1],,,,{8},,4w8[8:1],,,,
{24}2>7[24:5],3<8[24:5],4<1[24:5],{8},{24}1<4[24:5],8<3[24:5],7<2[24:5],{8},,,,,
{24}7<2[24:5],6>1[24:5],5>8[24:5],{8},{24}8>5[24:5],1>6[24:5],2>7[24:5],{8},,,,,
{24}1>6[24:5],2>7[24:5],3<8[24:5],{8},1-5[8:1],,1w5[8:1],,,,
{8}3V17[8:2],,7V52[8:2],,4-8[8:1],,{24},Cf,,,,,
{8}1V35[8:2],,,{16}6<1[16:3],7>2[16:3],8>3[16:3],,{8},4-1s5[8:6],5-8z4[8:5],
{1},
{8}2-6[8:1],,6>4[16:1],7>1[16:1],,3-7[8:1],,2V85[8:2],
{8},,4>5[32:15],,6q4[32:7],,,,
{24}E5f,C,E1,{8},,,,,,2>4[8:1],
{8},,8>7[32:7],,{32}E1,E2,E3,E4,E5,E6,E7,E8f,,,,,,,,,
{8}2V48[8:2],,8V25[8:2],7V51[8:2],,,Cf,,
{8}4V26[8:2],,6V41[8:2],7V15[8:2],,,Cf,,
{8}6V41[8:2],,1V73[8:2],2V48[8:2],,,Cf,,
{8}7V51[8:2],,1V75[8:2],2V48[8:2],,,Cf,,
{8}1-5[8:1],,5>3[16:1],6<8[16:1],,2-6[8:1],,1-6V48[8:3],
{8},,,,3-1[12:1],7-5[12:1],8w4[8:6],,
{1},
{8}2>5[8:1],,{24}B4,C,B8,{8},7<4[8:1],,{24}B5,C,B1,{8},
{8}8>3[8:1],,{24}B4,C,B8,{8},1<6[8:1],,{24}B5,Cf,B1,{8},
{8}3>7[8:2],,7v4[8:1],,5-1[8:1],6-8[8:1],B5,6-3[8:1],
{8}2-7[8:1],6-1[8:1],2-5[8:1],6-3[8:1],2-7[8:1],E6f,E2f,,
{8}4<7[8:1],8-4[8:1],,,1v6[8:1],5>2[8:1],,,
{8}7<1[16:7],,{12}E1,E2,E3,E4,E5,E6,{16}A8,A7,A6,A5f,
{8}1q5[8:1],,,8>3[8:1],,4-8[8:1],,7<4>1[8:2],,,Cf,8<1[8:2],,,,,
{1}5-8-3q7-2-5b[8:6],
{8},1-5[8:1],,{16}E6,E7,E8,,{8}4z8[16:3],3<1[8:16],2b>1[32:59]/B4f,
{1},
{1},
{8},5h[16:1],5,,,,,,
{1},
E
&inote_7=(190)
{1}
,
{16}
E7/B7,,E3/B3,,E5/B5,,E1/B1,,
,,,,E3/B2,,E7/B6,,
E5/B4,,E1/B8,,,,2$,,
3$/6$,,5$,4$,5$,,,,
3h[8:1],,5h[8:1],,4h[8:1],,6$,,
,,,,6$,,4$/6$,,
6$,,3$/6$,,2b$/7b$,,,,
3$/6$,,8$,1$,8$,1$,8$,1$,
{16}
7$x<4[8:1],,,,2v5[8:1]/7$,,,,
6<2[8:2]/2$,,,,6$,,,,
,,,,4>1[8:1],,,,
6qq8[8:3]/4$,,,,6$/2$,,,,
,,,,2>6[4:1],,,,
6<2[4:1],,,,2$,,,,
5h[8:2],,,,3h[8:2],,,,
7h[8:2],,,,1$,,,,
2$/5$,,6$,,7$/4$,,3h[4:1],,
,,6$,,7$,,8h[4:1],,
,,2$,,3$,,4$,,
6$,,3$,4$,2$,,5$,,
3$,,6$,5$,7$,,4h[8:2],,
,,6$,,5$/3$,,2b-6[8:1],,
,,,,,,,,
,,8$,,6$/3$,,,,
{16}
5-7[8:1],,3$,,5$,,,,
8-4[8:1],,2$,,8$,,,,
3$,,5$,,2h[4:1],,,,
6$,,4$,,7h[4:1],,,,
4-2[8:1],,6$,,4$,,,,
1-5[8:1],,7$,,1$,,,,
4$,,6$,,3$/5$,,2$,,
1$/7$,,6$,,3$/5$,,2$,,
1$/7h[4:1],,,,,,1$,,
6$,,2-6[8:1],,,,2$,,
,,,,,,4h[8:1],,
5-8[8:1],,,,3$/5$,,,,
2$,,7$,1$,6$,,6$/2$,,
,,2$,,3$,,4$/6$,,
,,3$/6$,,2$/5$,,3$,4$,
2$,,6$,5$,7$,,3$/6$,,
2>5[8:1],,8$,,2$,,,,
7p3[8:1],,1$,,7$,,,,
2-6[8:1],,8$,,2$,,,,
8-4[8:1],,1$,,8$,,,,
3>8[8:1],,5$,,5$/3$,,,,
6<1[8:1],,4$,,4$/6$,,,,
2$,,3$/5$,,7$,,4$/6$,,
1$,,3$/5$,,8$,,6$/4$,,
1h[8:2],,,,7$,,7v4[8:1],,
,,7$/3>6[8:3],,3$,,,,
,,,,,,5$,,
3$,,6$,,2$,,7pp6[4:2],,
,,,,,,,,
3pp2[4:2],,,,,,,,
8$,,8$,,,,7$,,
6$,,4$,5$,4$,,6h[4:1]/3$,,
,,3$,,3>8[8:2],,,,
3$/5$,,,,6$,,2h[4:1],,
,,7$,,7<4[8:2],,,,
7$/1h[8:1],,,,,,,,
1$,,,,1v6[8:1]/7$,,,,
1$/3$,,,,4$,,3$/6$,,
,,4$,5$,3$,,5$,4$,
6h[8:3],,1$,,2$,,3$,,
,,8$,,1$/7$,,2$,5$,
3h[8:2],,7$,,6$,,5$/3$,,
,,1$,,8$/2$,,7$,4$,
6h[8:2],,2$,,3$,,4$/6$,,
3h[4:1]/5$,,,,6$,,4$,,
3$/5$,,2$,,4$/6$,,7$,,
2$/5$,,1$,,7$/4$,,8$,,
3$/5$,,1$,,4$/6$,,8$,,
2h[16:4],,8$,,7$,,6h[16:4],,
1$,,2$,,3$,,4$,,
5bhx[8:5],,,,,,E1,,
E2,,E3,,E4f,,,,
{16}
,,,,,,,,
2v5[8:1],,8$,,2$/8-4b[8:1],,,,
8b$,,2$,,2h[8:2],,,,
7v4[8:1],,1qq3[8:4],,7$,,1$,,
,,5$,,5$,,,,
6$,,6$,,2h[8:2],,,,
5b$,,3$,,6h[4:1],,,,
1>4[8:1],,7qq4[8:4],,1$,,7$,,
,,,,,,2h[8:2],,
,,8$,,3$/6$,,,,
5b$,,3$,,7h[8:2],,,,
2v5[8:1],,8pp6[8:4],,2$,,8$,,
,,4$,,4$,,,,
3$,,3$,,7h[8:2],,,,
4b$,,6$,,3h[4:1],,,,
8<5[8:1],,2pp5[8:4],,8$,,2$,,
,,,,,,7h[8:2],,
,,1$,,6$/3$,,,,
{16}
2qq3[8:3],,,,,,6$,,
6qq7[8:3],,,,,,1$,,
1$,,,,2$,,5$/3$,,
,,4h[4:1]/6$,,7$,,8$,,
2v5[8:1]/8$,,,,2$/7$,,8b-6>5b[8:1],,
,,8b-2>3b[8:1],,,,8b$,,
,,,,,,7<4[8:1],,
3-1[8:1],,7$,,3$,,,,
5$,,3$,,7h[8:2],,,,
2$,,6$/4$,,8$,,3b-5-8[8:2]/5b-3-8[8:2],,
,,,,,,,,
Ch[8:1],,,,,,,,
8-4[8:1],,4<7[8:1],,8$,,,,
2-4[8:1],,1-6<3b[8:4],,2$,,1b$,,
,,4$,,4h[4:2],,,,
8$,,7$,,6$,,,,
1-5[8:1],,5>2[8:1],,1$,,,,
7-5[8:1],,8-3>6b[8:4],,7$,,8b$,,
,,5$,,5h[4:2],,,,
1$,,2$,,3$,,,,
7v4[8:1],,4<8b[8:2],,7$,,,,
1$,,2$,,3$,,4$/8$,,
,,7$,,3-5[8:1]/6$,,,,
7-3[8:1]/3$,,,,7$,,,,
1$,,1$,,1$/8$,,7$,2$,
5$,4$,6$,3$,8$,,1$xh[8:2],,
,,5$,,3$/6$,,3$,5$,
4h[8:1],,6$,3$,8$,1$,6$,,
3$,,6$,5$,8$,,4$,,
6$,,3$,4$,1$,,5$,,
2$,,8$,1$,7$,,2$,,
8$,1$,7$,2$,6$,3$,5$,4hx[16:9],
5bhx[2:1],,,,,,,,
,,,,,,4$/5$,,
,,8$,,3$/7$,,,,
2$/6$,,3$,5$,1$,,6$,4$,
8v3[8:1],,,,8$/1$,,2v5[8:1],,
,,2$,,7$,,4$x/6$x,,
3$,5$,2h[8:1],,,,6$,4$,
7h[8:1],,,,2$,,3$/6$,,
1v6[8:1],,,,1$/8$,,7v4[8:1],,
,,7$,,2$,,5$x/3$x,,
6$,4$,7h[8:1],,,,3$,5$,
2h[8:1],,,,7$,,6$/3$,,
8h[4:1],,1$,,2$,,3h[4:1],,
8$,,7$,,6$,,3$,,
4$/5$,,3$/6$,,5$,1$,6$,2$,
7$,3$,8$,4$,7bhx[16:12],3bhx[16:11],,,
,,,,,,,,
,,,,,,,,
{16}
4bh[8:10],,,,,,7b<2b[8:5],,
,,,,,,,,
,,,,,,,,
,,6$,5$,7$,4$,7pp6[8:4],,
3h[4:1],,,,,,,,
3$,,3$,,5$,,5$,,
,,1$,,2$/5$,,6$,,
7$/4$,,3$,,2$/5$,,6$,,
7$/4$,,8$,,2$,,6h[8:3],,
,,,,,,4h[4:1],,
{24}
,,,5$,,,
2$,,3$,,4$,,
6$,,7$,,8$,,
3$,,2$,,1$,,
{16}
8-4[8:1],,7$,1$,8$,,3h[4:1],,
,,5$,,3$,,6$,4$,
7h[4:1],,4$,,4$,,6$,3$,
5$,,3$/5$,,4$/6$,,3$/5$,,
{16}
,,E7$,,E6$,,E5$,,
E3$,,E2$,,E1$,,E6$,E5$,
E4$,,C,,,,,,
B6$,,C,,B2$,,2bx>2>2>4b[16:33],,
,,,,,,,,
,,,,,,,,
6p4[8:5],,,,,,,,
,,,,,,,,
,E6,E7,E8,,,,,
,,,,,,,,
,,,,,,,,
,,,,,,,,
