&title=Regulus
&artist=お月さま交響曲
&first=0.27
&des=鸠
&lv_5=15
&inote_5=(212)
{4},,,,,,,,
{8}3,3,4,3,4,4,{16}2,3,4,5,
{8}6,6,8,1,7,7,2,2,{16}7,6,5,4,
{8}3,1,1,2,3,3,8,8,{24}8,7,6,5,4,3,2,1,8,7,6,5,
{8}2^7[4:3],2,,3h[4:1],,,,5h[4:1],,,
67,58,41,23,41,85,{16}67,8,1,2,34,5,6,7,
{8}1,8,7^2[2:1],6h[4:1],,,,4h[4:1],,,
32,41,58,76,58,14,{16}32,1,8,7,65,4,3,2,
{8}7-3[4:3],7,,2h[4:1],,,,8h[4:1],,,
48,15,26,73,48,15,26,73,48,15,{16}6,7,8,1,2,3,4,5,
{8}6h[2:1]/4,,4,,5,,{24}6,4,6,3,6,2,{8},,
{8}1h[2:1]/7,,7,,8,,{24}1,7,1,6,1,5,{8},,
{8}4h[2:1]/2,,2,,3,,{12}3b/4,,1b/2,,7b/8,,{8}5b/6-2[4:1],,,,,,
{16}1,8,1,8,1,8,1,8,17,,,,{24}2,6,3,5,4,4,{8}8,,
{16}8,1,8,1,8,1,8,1,82,,,,{24}7,3,6,4,5,5,{8}1-5[8:1],,
{4}1b/5b,,,,,
{16}6,5,4,3,4,5,6,7,8,7,6,5,4,3,2,1,{24}8h,1h,2h,3h,4h,5h,6h,7h,8h,1h,2h,3h,
{4}4b/5^8[1:1],,,,,
{8}1,2,3,4,,34,{16}2,5,2h[8:1],5h[16:3],,,,,
{4}4^1[1:1],,,,,
{8}8,7,6,5,,65,{16}7,4,7h[8:1],4h[16:3],,,,,
{8}37,72,71,75,74,73,26,15,84,73,
{4}6^3[1:1],,,,,
{8}2,7,1,8,{24}1,8,2,7,3,6,{8}4,5,3,6,
{4}2^7[1:1],,,,,
{8}6,3,5,4,{24}5,4,6,3,7,2,{8}8,1,7,2,
{8}26,63,64,68,61,62,37,48,15,,
3,3h[2:1],,1,,7,7-4[8:1],,7^2[8:1],,3,,
8,8h[2:1],,6,,4,4-1[8:1],,4^7[8:1],,8,,
5,5h[2:1],,3,,1,{12}1b,,4b/2,,7b/5,,1b/8b,,,{24}18,27,36,{16}45,,1/2-6[4:11],,,,
8,4,8,4,8,4,8,4,8,4,8,4,8,4,8,4,8,4,8,4,8,4,8,4,8,4,8,4,8,4,8,4,8,4,8,4,8,4,8,4,,,,,,,,,
1,2,3,4,56,,76,,78,,18,,{24}12,8,7,6,5,4,3,2,1,8,7,6-3[4:1],
{8}2b,,,2,1,8,7-3[4:1],,3^6[4:1],,6^1[4:1],,
{16}2,3,4,5,3,4,5,6,4,5,6,7,5,6,7,8,6,7,8,1,2/6-3[4:1],,,,
{8}1b,,,1,8,7,6-2[4:1],,2^5[4:1],,5^8[4:1],,
{16}1,2,3,4,2,3,4,5,3,4,5,6,4,5,6,7,5,6,7,8,1/5-8[4:1],,,,
{8}2b,,,2,1,3,8,4^7[8:1],7^2[8:1],,,,{8}6b,,,6,4,7,5-1[4:1],,1^4[4:1],,4^7[4:1],,
{16}8,1,2,3,8,1,2,3,8,1,2,3,{8},,34,,52,,{24}16,2,3,4,5,6,27,3,4,5,6,7,38,4,5,6,7,8,41,5,6,7,8,1,25,6,7,8,1,2,{8}3-6[8:1],,
{8}7b,,,7,8,1,2-6[4:1],,6^3[4:1],,3^8[4:1],,
{16}7,6,5,4,6,5,4,3,5,4,3,2,4,3,2,1,3,2,1,8,7/3-6[4:1],,,,
{8}8b,,,8,1,2,3-7[4:1],,7^4[4:1],,4^1[4:1],,
{16}8,7,6,5,7,6,5,4,6,5,4,3,5,4,3,2,4,3,2,1,8/4-1[4:1],,,,
{8}7b,,,7,8,6,1,5^2[8:1],2^7[8:1],,,,{12}3h[1:1],,6b,,4b,,2b,,8b,,6b,,4b,,,4^7[8:1]/3^8[8:1],,,
{8}3b/4b,,,78,,56,56,,34,,12,,
{32}7b/8h[4:1],6,5,4,{4}3,{32}1h[4:1]/2b,3,4,5,{4}6,{32}8b,17,6-2[4:3]/2,3-7[4:3]/5,
{8}4b,{4},,,,
{8}1,1,8,1,1,8,{16}8,7,1,2,7,6,{8}2,5,3,3,5,3,3,{16}5,6,3,4,6,7,4,5,{24}8,7,6,1,8,7,2,1,8,3,2,1,
{8}3,3,1,3,3,1,{16}1,8,3,2,8,7,2,1,{8}7,5,5,7,5,5,{16}7,6,4,3,6,5,3,2,{8}4,4,2,2,8,8,6h[2:1],,,,
{12}7,5,5,47,6,6,47,,,31,2,2,13,2,2,17,8,8,16,7,7,7,,,
35,4,4,4,4,4,56,7,7,18,2,2,34,5,5,67,8,8,12,3,3,45,63,27,
{4}1-4[1:1]/8-5[1:1],,,,,,
{24}45,36,27,18,1,2,3,4,5,6,7,8h[24:19],
{8}2b,,,,,,4b,,,6^3[1:1]/8b,,,1,8,7,1,8,7,1,8,7,{16}2,1,8,7,6,5,
{8}48,48,,1h[4:3],,,,,,5^8[1:1],,5b,2,3,4,2,3,4,3,2,{16}1,2,3,4,5,6,7,8,
{8}1h[8:7],,,,,,,7,,5,,3,3/8h[8:7],,,,,,,2,,4,,6,
6/1,2,3,4,,57,,28,,{16}3,4,3,4,3,4,{8}3,5,6,7,,28,,35,,{16}7,6,7,6,7,6,
{8}7-4[8:1],8,3,2-6[8:1],1,6,8^5[8:1],,{16}4,3,2,1,8,7,6,5,
7,6,5,4,6,5,4,3,5,4,3,2,4,3,2,1,3,2,1,8,37,,,,
{8}7-3[8:1],8,3,2-5[8:1],1,6,,7b/8b,,1b/2b,,53,3^8[8:1]/5,,
{16}7,6,5,4,6,5,4,3,5,4,3,2,4,3,2,1,48,,,,
{8}5-8[4:1]/7-4[4:1],,,,,,3,1-4[4:1],3-8[4:1],,,,
{12}5h[1:1],,8b,,6b,,4b,,2b,,8b,,6b,,,5^2[8:1]/6^1[8:1],,,
{8}6b/5b,,,21,,43,43,,65,,87,,
{32}2b/1h[4:1],3,4,5,{4}6,{32}8h[4:1]/7b,6,5,4,{4}3,{32}1b,8/2-6[4:3],3/7,6/4-8[4:3],
{8}5b,{4},,,,{8}1,1,7,1,1,7,{16}7,6,5,4,{8}3,3,
{8}2,4,4,2,4,4,{24}2,1,8,7,6,5,4,,,,,,
{32}48,1,2,,{8}4,4,{32}37,6,5,,{8}3,3,{32}35,26,17,,,,,,1,28,37,46,,,,,
{32}46,3,2,,{8}6,6,{32}58,1,2,,{8}5,5,{32}26,73,84,,,,,,8,17,62,35,,,,,
{32}53,6,7,,{8}3,3,{32}41,8,7,,{8}4,4,{24}73,26,15,48,3,2,1,8,71,26,35,,
{8}4b,4b,,1b/2,6/5b,8-5[8:5]/7b,3b/4-1[2:1],
