&title=Tic! Tac! Toe!
&artist=TAK x Corbin
&first=0
&des=WuWai
&lv_5=12+
&inote_5=(126){1},
{16},,,,1h[4:1],,,,7,,,1h[16:3],,,8-4[8:1],,
{16},,,,2h[4:1],,,,4,,,2h[16:3],,,3-7[8:1],,
{16}1,,,,3h[4:1],,,,6,,,3h[16:3],,,5,,
{16}4,,,8,,,4,,5-8[8:1],,,,3-6[8:1],,,,
{16}7-2[8:1],,,,1-4[8:1],,,,5-8[8:1],,,,3-6[8:1],,,,
{16}7-2[8:1],,,,1-4[8:1],,,,6-3[8:1],,,,4-1[8:1],,,,
{16}8-5[8:1],,,,2-7[8:1],,,,6-3[8:1],,,,4-1[8:1],,,,
{24}8-5[8:1],,,,,,2-7[8:1],,,,,,6,,,,,,4,,5h[24:6],,,2,
{24},,1,,,,5,,4h[24:6],,,7,,,8,,,,4,,5h[24:6],,,2,
{24},,1,,,,5q6[4:1],,4,,,3,,,,,,,4,,5,,,2>4[8:1],
{24},,7,,,,,,,5,,,3/6v7[8:1],,,,,,3,,2,,,18,
{24},,57,,,86,,,,,,2-6[8:1]/4-8[8:1],,,3/1,,,,,,,,,,
{16}1h[8:1]/7<5[8:1],,,,2h[8:1],,,,3h[8:1]/4>2[8:1],,,,4/5h[8:1],,,,
{16}6h[8:1]/1p8[8:3],,,,7h[8:1],,,,,,,,{16}8,1h[8:1],,2<7[16:5],
{16},,3,,4,,5,,6h[24:3],,,,1,8,,7>2[16:5],
{16},,6,,5,,4,,3h[24:3],,,,,8,,1h[48:9],
{24},,,4h[4:1],,,2-5[8:1],,,1h[24:3],,,2,,,,,,6,,4,,,8h[48:8],
{24},,,5h[4:1],,,7-4[8:1],,,8h[24:3],,,7,,,,,,3/6h[1:1],,,,,,
{16}4,,5,,7,,8,,1,,2,,3,{16}6,{24},,18,,
{24},,,,,4,,8,,,,1,,5,,,,4,,8,,,,
{24}15,8,7,6,5,4,3b/7b,2,1,8,7,6,5,4,3,2,1,8,7,6,5,4,3,2,
{16}1-4[4:1]/7,,,,6,,,,5,,,,8>2[8:1]/1-5[8:1],,7,,
{16}8b/1b,,,,1<7[8:1]/8-4[8:1],,2,,8b/1b,,,,2>4[8:1],,1,,
{16}8,,7,,6q6[4:1],4,,3,,,,,1-5[8:1],,28,,
{16}7-3[8:1],,,,1,,2,,5,,6<1[8:1],,1>4[8:1],,6,4,
{16},,1q1[4:1],,,,,,,,,,8-2[8:1]/1-5[8:1],,7,,
{16}8b/1b,,,,1-7[8:1]/8-4[8:1],,2,,8b/1b,,,,4>2[8:1],,5,,
{16}6,,7,,1,8,,7h[16:3],,,6,,56,,45,,
{24}34,,5,4,,4,3,,3,4,,4,5,,5,6,,6,5-1[8:1],,5,4,,4,
{16}5>2[8:1]*<7[8:1],,,,5,,,,25,1,,,6V42[8:1]/3v8[8:1],2,,,
{16}3b/6b<1[8:1],,,,2>5[8:1],,,,8<6[8:1],,,4pp5[16:3]*qq3[16:3],,3h[24:1],,,
{16},,,,7h[4:1]/4>2[8:1],,,,4,,,8,,1,8,,
{16}3h[4:1]/6>4[8:1],,,,6<1[8:1],,,,2,,,3,,4,5,,
{16}47,,,,38,,,,47,3,,,63,2,,,
{16}6bV42[8:1]/3bv8[8:1],,6b/3b,,6b/3b,,,,1<6[16:3],,,6-1[8:1],,,5,,
{16}5>2[16:3],,,2-5[8:1],,,1,,1<6[16:3],,,6-1[8:1],,,5,,
{16}5-8[8:1],,,,5-2[8:1]/4,,,,6/5-8[8:1],,,,45,,2,,
{16}8h[16:3],,,1,,,8h[16:2],,1h[16:6],,,4,5,6,7,8,
{16}1<6[8:1]/2h[2:1],,,,,,,,5>2[8:1],,,,,,,,
{24}1,,5,4,,56,,,38,,,6,5,,8,1,,4,{48}3,,,,3/5h[24:3],,,,,,1,,
{24},,4,3,,2h[6:1]/5,,,,8,,5,6,,4/7h[6:1],,,,1,,4,3,,2h[6:1]/5,
{24},,,8,,5,6,,4/7h[24:3],,,5,{24}4,3,2,1,5,4,3,2,1,8,7,6,
{24}4h[500:1]/5h[500:1],3,2,1,8,7,4h[500:1]/5h[500:1],3,2,1,8,7,4h[500:1]/5h[500:1],3,2,1,8,7,4h[500:1]/5h[500:1],3,2,1,8,7,
{24}4h[500:1]/5h[500:1],6,7,8,1,2,4h[500:1]/5h[500:1],6,7,8,1,2,4h[500:1]/5h[500:1],6,7,8,1,2,4h[500:1]/5h[500:1],6,7,8,1,2,
{16}4/3-6[8:1],,,,7-2[8:1],,,,1-5[8:1],,,,8-4[8:1],,,,
{16}1,,2,,3,,4,,5,4,5,36,,,,,
{16}4h[1:2],,,,,,,,,,,,,,,,
{16},,,,,,,,,,,,,,,,
{16}5h[16:28],,,,,,,,,,,,,,,,
{16},,,,,,,,,,,,4,,3,,
{16}21,,,,5,,6,,78,,,,2,,1,,
{16}8,,7,,4,5,,2p5[16:5],,,1,,8,,7,,
{16}6qq8[2:1],,,,3,,,,2,,,,1>3[8:1]*-3[8:1],,1,,
{16}1<7[8:1]*-7[8:1],,,,1-4[8:1],,,,1-6[8:1],8,,,1-5[8:1],2,,,
{16}1b,,,,2/4-1[8:1],,3,,4b/6,,,,5-8[8:1]/7,,6,,
{16}3/5b,,,,4>1[8:1],,35,,4<7[8:1],5,,,4-8[8:1],3,,,
{16}4b,,,,7>2[8:1]/1-5[8:1],,6,,7b/1b,,,,2<7[8:1]/8-4[8:1],,3,,
{16}2b>6[8:1]/8b,,,,7-3[8:1]*-4[8:1]/2b,,,,7b,,,,8-4[8:1]/3<5[8:1],,21,,
{16}8b/3b,,,,1-5[8:1]/6>4[8:1],,78,,1b/6b,,,,3,,5,,
{16}1>4[8:1],,2/8,,8,1,,7-3[16:3],,,4,,2,,1,,
{16}5,4,5,3,6,5,6,4,5,3,6,4,5-7[8:1]/3-1[8:1],,4,,
{16}5-1[8:1]/3-7[8:1],,,,35,,,,28,1,,,2-6[8:1]/8-4[8:1],1,,,
{16}2b/8b,,,,5h[16:3],,,,7h[16:3]/3h[16:3],,,,2-6[8:1]/8-4[8:1],,,,
{16}2b/8b,,,,5h[16:3],,,,7h[16:3]/3h[16:3],,,,2-6[8:1]/8-4[8:1],,,,
{16}2b/8b,,,,5h[16:3],,,,7h[16:3]/3h[16:3],,,,2-4[8:1]/8-4[8:1],,1,,
{16}2-6[8:1]/8-6[8:1],,,,2>4[8:1]/8,,,,2<8[8:1],1,,,2,3,,,
{16}7b-3[8:1]/5b-1[8:1],,7b/5b,,7b/5b,,,,2>5[16:3],,,5-2[8:1],,,6,,
{16}6<1[16:3],,,1-6[8:1],,,2,,2>5[16:3],,,5-2[8:1],,,6,,
{16}7-3[8:1],,,,1-5[8:1]/7,,,,1/7-3[8:1],,,,17,,2,,
{16}34,,,,56,,,,1<7[8:1]/8-4[8:1],,,,,,,,
