&title=Arghena
&artist=Feryquitous vs Laur
&first=0
&des=KarinaOvO
&lv_5=14
&inote_5=(185)
{4},,,,
{32}8b,1/7,2/6,3/5,4h[16:6],,,,,,,,,,,,
{4}6h[2:1],,
{4}3h[2:1],,5h[1:1],,
{4},,,4/5h[2:1],
{4},4,3q5[1:1],5/3,
{4},,,6h[1:1],
{4},,,5,
{8}5/6h[1:1],,,4,,,3h[4:3],,
{4},6,5,4-8[8:1],4<4[4:5]/3,,,,
{4},,7,7h[1:1]/5,
{4},,,5h[2:1],
{4},7,6,6p4[1:1]/4,
{4}6/3,,3,3h[4:3],
{4},,4,5,
{4}6,,6V41[1:1]/3V58[1:1],,
{4},,,,
{8}2h[4:1]/7b-5[8:1],,7,3,4-8[8:1],6,4,,
{8}7v5[8:1],8V24[16:3],7,8,6,7,8,4,
{16}4/8h[4:1],,,,4,3,2/7,,6-4[8:1],,1,,6,,,,
{16}1v3[8:1],,4V68[16:3],,1,,4,,2,,3,,4,,5,,
{16}1q7[4:1]/5,,,,4,,4,,3,,8,,3,,,,
{16}7v5[8:1],,2V46[16:3],,7,,2,,7,,7,,8,,1,,
{16}2/8-6[8:1],,,,2,3,4,,5-1[8:1],,4,,5,,4,,
{16},,3h[4:1],,,,8-2[8:1],,2-4[8:1]*-6[8:1],,8,,,,,,
{16}7h[4:1]/5b-3[8:1],,,,5,,6,,6-2[8:1],,3,,6,,,,
{16}3v5[8:1],,2V86[16:3],,3,,2,,4,,3,,2,,1,,
{16}1/5-7[8:1],,,,5,,1,,1-5[8:1],,8,,1,,,,
{16}6v8[8:1],,5V31[16:3],,6,,5,,7,,6,,5,,4,,
{16}4/8p2[4:1],,,,5,,5,,6,,1,,6h[4:1],,,,
{16}2v4[8:1],,7V53[16:3],,2,,7,,2,,2,,1,,8,,
{16}8/4,,1/5,,,2/6,,,3/7,,,,4-8[4:1]/8-4[4:1],,,,
{16},,,,,,,,1b-5[8:1]/5b-1[8:1],,,,1b>1[4:15]/5b,,,,
{4},,,,,,,,,,,,,,,,
{8}4h[8:1],,5h[8:1],,6h[8:1],,3h[8:1],,
{8}4h[8:1],,5h[8:1],,3h[8:1],,4h[8:1],,
{8}6h[8:1],,5h[8:1],,4h[8:1],,3h[8:1],,
{8}4h[8:1],,5h[8:1],,3h[8:1],,4h[8:1],,
{8}6,6h[8:1],4,4h[8:1],5,5h[8:1],3,3h[8:1],
{8}8,8h[8:1],2,2h[8:1],5,5h[8:1],4,4h[8:1],
{8}7,7h[8:1],8,8h[8:1],6,6h[8:1],1,1h[8:1],
{8}4,4h[8:1],2,2h[8:1],8,8h[8:1],5,5h[8:1],
{8}6,3/5,2,6/4,7,2/5,1,5/3,
{16}7,1,7,1,6,2,6,2,1,2,8,3,7,4,6,3,
{16}8,8,1,1,
{16}5,5,3,3,
{32}7,6,5,4,3,2,1,8,7,6,5,4,3,2,1,8,
{4}7p5[2:1]/3p1[2:1],,,,
{16}8b>3[8:1]/4b,,,,8,,4-8[8:1],,,,4<3[8:5],,,,,,
{16},,,,,,,,,,7,7,4-8[8:1],,6,,
{16}4/5,,,,7v5[8:1],,8V24[16:3],,7,,8,,7,,8,,
{16},7/4,,,6/3,,,5/2,,,1,1,4-8[8:1],,1,,
{16}4-1[8:1],,,,4,,7qq4[4:3],,,,,,,,,,
{16},,,,,,,,2h[4:1],,4,5,6,7,8,,
{16}8/4-2[8:1],,,,4,,8,,,,8-6[8:1],,1,,8,,
{16},,1V75[4:1],,5,,1,,,,1,8/4,7/3,6/2,5/1,,
{16}8b/4b<7[8:1],,,,4,,8-4[8:1],,,,8>7[8:5]*V24[8:3],,,,,,
{16},,,,,,,,,,2,2,6-2[8:1],,3,,
{16}6/4,,,,3v5[8:1],,2V86[16:3],,3,,2,,3,,2,,,
{16}3/5,,,4/6,,5/7,,
{12}8,8,8,
{16}1,,2,4,
{16}2-6[8:1],,,,2,,8qq5[4:3],,,,,,,,,,
{16},,,,,,,,4h[2:1],,,,,,,,
{16}5,,,,3,,5h[4:1]/3,,,,,,3,,3/6h[4:1],,
{16},,,,4,,7h[2:1]/4,,,,4,,3,,2,,
{16}1b/8b-6[8:1],,,,8,,4V28[4:1],,,,4,,6,,5,,
{16}4h[8:1],,7,,4,8,4,1,4,2,4,3,5,4,6,,
{16}7b/4b-2[8:1],,,,4,,8V64[4:1],,,,8,,2,,1,,
{16}8h[8:1],,3,,8,4,8,5,8,6,8,7,1,8,2,,
{16}3b/8b-6[8:1],,,,8,,4V28[4:1],,,,4,,6,,6-4[8:1],,
{16},,6,,8pp3[2:1],,,,4,,5,,6,,7,,
{16}8-5[8:1],,,4b,8b,,,,1-4[8:1],,,5b,1b,,,,
{16}8v5[8:1],,,4b,8b,,,,1v4[8:1],,,5b,1b,,,,
{16}5/3,2,1,8,7,6,5,4,3/6,2,1,8,7,6,5,4,
{4}3-7[2:1]/7s3[2:1],,,,
{16}4/6,7,8,1,2,3,4,5,6/3,7,8,1,2,3,4,5,
{4}6/2v5[2:1]*z6[2:1],,,,
{16}7h[4:1],,,5,5,,,,3h[8:1]/7,6,5,4,3,2,1,8,
{16}7/2h[4:1],,,4,4,,,,6h[8:1]/2,3,4,5,6,7,8,1,
{16}5b,3,5,3,5,4,5,4,5b,8,5,4,5b,1,5,3,
{16}6,4,7,5,8h[8:1],,4,4,8,8,3,3,7,7,2,2h[16:57],
{4}6h[4:14],,,,,,,,,,,,,,
{16},,,,8-4[8:1]/4>6[2:1],,,,
{16}8,,,,,,,,4-8[8:1],,,,4,,6b,,
{16},,
{32}6,,,,
{16}2h[4:1]/4b,,,,4,,4,,3,,3,,
{16}7,5,7,,1,,2,5,2,,8,,3,,6V42[4:1],,
{16},,6,,1,,,1,1,,8-4[8:1],,1,,1/8b,,,,
{16}3,,7h[4:1]/5b,,,,4,6,4,,5,,8b/2h[4:1],,
{16},,,,6h[8:1]/4b,,3,,3,5,3,5,2-4[8:1],,4,,
{16}2,,7-5[8:1],,5,,7-1[8:1],,,,7,,2-6[8:1],,,,
{16}2,,8,,8,,7/5,,
{12}4,4,4,6,6,6,
{16}3b/5b-3[8:1],,,,5,,2,,2-6[8:1],1,1,,2,,,,
{16}8v6[8:1],,5V31[16:3],,8,,5,,7,,6,,5,,4,,
{16}4/8-2[8:1],,,,8,,4,,5-1[8:1],3,3,,5,,,,
{16}4v2[8:1],,1V75[16:3],,4,,1,,3,,2,,1,,8,,
{16}4p6[4:1]/8,,,,8,,1,,2,2,3,,4/5,,6,,
{16}7/5q3[4:1],,,,8,,7,,6,6,5-1[1:1],,3,,4b/5b,,
{4},,,,
{16}2h[4:1],8,7,6,5h[8:1],,3,4,5,6,7,8,1v4[8:1]/7v4[8:1],,,,
{16}1b/7b,,,,7,,3>8[8:1],,,,3,,
{32}7,6,5,4,3,2,1,8,
{24}7,6,5,4,3,2,1,8h[48:7],,
{16}3,4,5,,7,7,5-1[8:1],,4,,
{16}5/3,,,,2v4[8:1],,1V75[16:3],,2,,1,,2,,1,,
{16},2/4,,3/5,,4/6,,7,5,7h[16:3],
{32}8b,1b,2b,3b,
{16}4b,,8,,8-5[8:1],,,,8/4,,4qq1[4:3]*pp8[4:3],,,,,,,,,,
{16},,,,,,,,7,6,5,4,3,2,1,8,
{16}7/2,,,7h[16:5],,2,,,2,,,3h[16:5],,6,,,6,,,4,,5,4,6,3,7,2,8,1,7,2,6,
{16}3-5[8:1],,,6,3,,7,,7-3[8:1],,,2,7,,2,,
{16}4/8,5/1,6/2,7/3,
{24}4,5,6,7,8,1,2,3,
{32}4,5,6,7,8,1,2,3,
{48}4,5,6,7,8,1,2,3,
{4}4bz8[4:6]*-1[4:6],,,,
{4},,,,
{4}7s3[4:6],,,,,,,
{4}1-5[8:1],,,,
