&title=jihad
&artist=KOTOKO
&first=0
&des=GAHOU
&lv_5=13+
&inote_5=(180)
{1},
{8}2h[1:1],,3,3<6[16:4],,,,,
{8}7h[4:3],,6,6>3[16:4],,,,,
{1}8<4[8:5],
{1}1>5[8:5],
{8}6h[1:1],,7,7>2[16:4],,,,,
{8}3h[4:3],,2,2<7[16:4],,,,,
{1}4>7[8:5],
{1}5<2[8:5],
{8}4h[4:3]/3,,5,5>2[16:3],,,,,
{8}7/8h[4:3],,1,1<6[16:3],,,,,
{1}5/2pp8[8:5],
{1}6pp4[8:5]/1,
{8}3/2h[4:3],,8,8<5[16:3],,,,,
{8}6h[4:3]/8,,4,4>1[16:3],,,,,
{1}8<1[8:4]/1>8[8:4],
{8}1/3h[4:1],,5,6h[4:1]/8,,4,{16}6,3,7,2,
{8}8-4[8:1]/1,,4,3,2>5[8:1],,6V82[4:1],,
{4}2V46[4:1],6V82[4:1],2V46[4:1],6,
{8}2h[4:1],,8,8,5>2[8:1],,6,,
{8}8h[4:1],,2,2,4<7[8:1],,2,,
{8}1-5[8:1]/8,,5,6,7<4[8:1],,3V17[4:1],,
{4}7V53[4:1],3V17[4:1],7V53[4:1],3,
{8}7h[4:1],,1,1,4<7[8:1],,2b-6[8:1],,
{8}8bz4[16:9],,,,,,,,
{8}3h[1:1]/4,,2,,,,,4,
{8}5h[4:1],,6q3[16:5],,,,,,
{8}6h[1:1]/5,,7,,,,,5,
{8}4h[4:1],,3>6[8:3],,,,,,
{8}4/2h[4:1],,1pp1[8:3],,,,,7,
{8}6h[4:1],,8>6[8:3],,,,,,
{8}8h[4:1],,7p1[8:3],,,,,6,
{8}5h[4:1],,1s5[4:1],,,8,8,,
{8}7h[2:1]/5b,,5,,5>2[8:1],,7,6,
{8}5/1h[4:3],,4,,4,,4<7[8:1],,
{8}2h[2:1],,8,,8>3[8:1],,7,6,
{8}5h[4:2]/4,,4,,4-1[8:1],,8,,
{4}7-4[8:1],1-6[8:1],5-8[8:1],2-5[8:1],
{4}1-4[8:1],3-8[8:1],5-8[8:1],2,
{4}3-6[8:1]/1-5[8:1],,7-3[8:1]/8-4[8:1],,
{8}2h[8:3]/1,4,5,6,8h[8:3]/1,3,4,5,
{8}7b/1b>4[8:1],,1/7,6<1[8:1],,2/6,3V52[16:3],,
{8}7/3,,8,7h[4:1]/1,,1,{16}7,5,6,4,
{8}5<8[8:1],,5/3,2>5[8:1],,1/2,8V61[16:3],,
{8}8/3,,4,5h[4:1]/8,,7,{16}3,5,2,4,
{8}1-5[8:1],,1/8,6q2[8:1],,2/6,3<6[8:1],,
{8}8/3,7>2[8:1],,7/2,3,4,5-8[8:1]/2,,
{8}5/3V17[16:3],,6/3,5h[4:1],,1,{24}5,6,7,8/1,2,3,
{8}5-1[8:1]/4-8[8:1],,5b<3[16:5]/4b>6[16:5],,,,,,
{8}5b-3[8:1]/7b-4[8:1],,7/5<2[4:1],,5/2,3,5-1[8:1],,
{8}5-3[8:1]/7-4[8:1],,7/5<2[4:1],,5/2,3,5-1[8:1],,
{8}5-3[8:1]/7-4[8:1],,7/5<1[8:1],,5/2-6[8:1],3,8>4[8:1]/2,7,
{8}8/3qq6[8:3],,,5,5w1[8:1],,5,,
{8}4b-6[8:1]/2b-5[8:1],,2/4>7[4:1],,4/7,6,4-8[8:1],,
{8}4-6[8:1]/2-5[8:1],,2/4>7[4:1],,4/7,6,4-8[8:1],,
{8}4-6[8:1]/2-5[8:1],,2/4>1[8:1],,4-8[8:1]/7p3[8:1],6,4/7,,
{8}1/2,3/5,4/6,5/7,1/2,4/6,5/7,8/6,
{8}1bv4[8:1]/3b-8[8:1],,1/3<6[8:1],,7v4[8:1]/3,8,1<6[8:1]/7,2,
{8}1v4[8:1]/3-8[8:1],,1/3<6[8:1],,7v4[8:1]/3,8,1<6[8:1]/7,2,
{8}1v4[8:1]/3-8[8:1],,1/3<6[8:1],,7v4[8:1]/3,8,2<3[16:5]/7,3,
{8}2/5,,,7,1/8w4[8:1],,8,,
{4}2-6[8:1],1-5[8:1],8-4[8:1],7-3[8:1],
{8}5-1[8:1],,6,,7/8,6,5/4,3,
{8}2pp1[4:1]/1,,8/2,,6pp5[4:1],6,6/4,,
{8}3,2,1/8,7,6/5,4,5/3,{16}6,2,
{4}7-3[8:1]/1,7/2-6[8:1],5-1[8:1]/2,4-8[8:1]/5,
{8}6-2[8:1]/4,,6/3,,8/5,6,4-8[8:1]/3,1,
{1}4b/2bz6[16:9],
{8}8/6h[4:1],,4,3h[4:1]/1,,5,{16}3,6,2,7,
{8}1b-5[8:1]/8b,,5,6,7<4[8:1],,3V17[4:1],,
{4}7V53[4:1],3V17[4:1],7V53[4:1],3,
{8}7h[4:1],,1,1,4<7[8:1],,3,,
{8}1h[4:1],,7,7,5>2[8:1],,7,,
{8}8b-4[8:1]/1b,,4,3,2>5[8:1],,6V82[4:1],,
{4}2V46[4:1],6V82[4:1],2V46[4:1],6,
{8}2h[4:1],,8,8,5>2[8:1],,7,,
{8}8h[8:3]/1b,6,5,4,2h[8:3]/8b,5,4,3,
{8}1b-5[8:1]/8b,,5/1,6,7<4[8:1],,7/3-1[8:1],,
{4}6-8[8:1]/3-5[8:1],6-2[8:1]/3,6-4[8:1]/3-1[8:1],6/3-7[8:1],
{8}5<3[4:1]/3,,3,4,5v2[8:1],,7,,
{8}4>6[4:1]/6,,6,5,4v7[8:1],,2,,
{8}8b-4[8:1]/1b,,4/8,3,2>5[8:1],,2/6-8[8:1],,
{4}3-1[8:1]/6-4[8:1],3-7[8:1]/6,3-5[8:1]/6-8[8:1],3/6-2[8:1],
{8}6/1,,7/8,6/8,5/4,4/3,1b/2b,8/3,
{1}4b/7bs3[16:10],
{1}4bpp8[4:21]*qq3[4:21]/2b,
