&title=Bloody Stream
&artist=Coda
&first=-0.53
&des=Neya
&lv_5=13+
&inote_5=(132)
{1},
{16}5,4,3,,2h[8:1]/5,,4,4,,3h[8:1],,6,4,,28,,
{16}6,5,7,5,6h[8:1],,3,4,2,5h[8:1],,8,7,,16,,
{16}2,4,3,4,2h[8:1],,5,5h[16:1],4,4h[16:1],,7-3[16:1],3,,7b/1b<2[8:3],,
{16},,,,,,,,6,,6,,4,5,4,5,
{16}4b,,35,,26,,3qq6[16:6],5,,5,3,,6,,,,
{16}8h[8:2],,7,,5h[8:1],,1,4,7^2[8:1],,2^5[8:1],,73,,,,
{16}1-4[8:1],,5,,1,,6V84-2[16:6],5,,5,6,,2,,,,
{16}1h[8:2],,3,,5h[8:1],,8,6,2-6[8:1],4,3,,72,,,,
{16}84,,56,,4,5,6,7h[8:1]/4,,5,5h[8:1],,8^3[8:1],,3^6[8:1],,
{16}28,,,,1,,7,8,6p2[8:1],,2,,4>5[8:6],,4,,
{16}1h[8:6],,,,,,,,,,,,,,,,
{16}56,56,,34,34,,1,5,3,8,4,6,1,1,1,1,
{16}5b,,64,,73,,6pp3[16:6],4,,4,6,,3,,,,
{16}1h[8:2],,2,,4h[8:1],,8,5,2^7[8:1],,7^4[8:1],,26,,,,
{16}8-5[8:1],,4,,8,,3V15-7[16:6],4,,4,3,,7,,,,
{16}8h[8:2],,6,,4h[8:1],,1,3,7-3[8:1],5,6,,27,,,,
{16}15,,43,,5,4,3,2h[8:1]/5,,4,4h[8:1],,1^6[8:1],,6^3[8:1],,
{16}17,,,,8^3[8:1],,2,2,8-4[8:1],,,,4V25[8:2]/8V61[8:2],,,,
{16}84,,,,,,,,84,,37,,26,,15,,
{16}4b,2,6,3b,1,5,8b,2,6-3b[10:1],7b,5,1,6,,,,
{16}2h[8:1],,4,4,3h[8:1],,5,5,4h[8:1],,7,7,6h[8:1],,8,8,
{16}1h[8:1],,3,3,2h[8:1],,4,4,3h[8:1],,5,5,4h[8:1],,7,7,
{16}6h[8:1],,8,1,7h[8:1],,1,8,2h[8:1],,7,1,6h[8:1],,2,8,
{16}3h[8:1],,6,1,5h[8:1],,3,8,4h[8:1],,6,8,4h[8:1],,3,1,
{16}5^2[8:1],,5,,8v3[8:1],,8,,1v6[8:1],,1,,4^7[8:1],,4,,
{16}8p4b[8:1],,1,,2q6b[8:1],,1,,6>8[8:2],,,,8,,,,
{16}6h[8:2],,7,,1h[8:2],,3,,5h[8:2],,6,,4h[8:2],,2,,
{16}8,8h[8:5],,6,,1,,5,,2,,4bz8[8:3],,2b/6bz2[8:2],,,
{16},,,,,,,,1,7,2,8,4,5,3,6,
{16}1^4[8:1],,78,,6x-8[12:1],6,,5x,6^3[8:1],,2,,63,,1,,
{16}8-4[8:1],,17,,2x-6[8:1],2,,5x,2V41[16:3],,7,,28,,,,
{16}6h[8:1],,8,7,1h[8:1],,4,3,5-8[8:1],2,2-5[8:1],,5-1[8:1],,2,,
{16}1-5[8:1],,8,,7,7,,6pp7[16:3]/4qq3[16:3],,,,,,,,,
{16}3-5[12:1]/5,,26,,8x^3[8:1],8,,4x,8,,5,,46,,28,,
{16}1/7-4[8:1],,8,,2x^7[8:1],2,,5x,2,,6,,57,,82,,
{32}3x/7x,4x,5x,6x,7x,8x,1x,2x,6xv1[8:1],5x,4x,3x,2x,1x,8x,7x,{4}6x/4x,{16}4,8,4,8,
{16}3b,7,1,6b,8,4,1bw5b[8:1],7,3,,1b,,,,,,
{16}8^5b[8:1]/4,,21,,3x-1b[12:1],3,,4x,3^6[8:1],,7,,36,,8,,
{16}1-5b[8:1],,82,,7x-3b[8:1],7,,4x,7V58[16:3],,2,,71,,,,
{16}3h[8:1],,1,2,8h[8:1],,5,6,4^1[8:1],7,7^4[8:1],,4p8[8:1],,7,,
{16}8p4[8:1],,1,,2,2,,3v2[16:2]/5v6[16:2],,,,,,,,,
{16}6-4[12:1]/4,,73,,1^6[8:1],1,,5,1,,4,,53,,71,,
{16}8/2-5[8:1],,1,,7^2[8:1],7,,4,7,,3,,4/2-6[8:1],,1/7-3[8:1],,
{16}28,,7,,2,4h[16:8],,5,,3,,6,,2,,84,
{16}37,,,,{48}7bs3[16:6]/3b,84,15,2z6b[16:5]/6,,,{8},,,,,
{16}4h[8:1],,5,4,6h[8:1],,4,5,3h[8:1],,6,5,7h[8:1],,2h[8:1],,
{16}5h[8:1],,4,5,3h[8:1],,5,4,6h[8:1],,3,4,2h[8:1],,7h[8:1],,
{1}8^7-4b[8:10]*^1-4b[8:10],{8},,,,,,{16}2,6,4,8,2,
