&title=⊇繧�レよ☆ス〒≠ナょ魔シ去❣❗⋆。:゚・*☽
&artist=佐藤乃子; 名前シレズ
&first=-0.017
&des=王耑
&lv_5=14
&inote_5=(90){16},{32}6xh[4:1],5x,{16}4xh[4:1],,,,6xh[16:3],,,,5xh[16:3],
,,,4xh[8:1],,3x,4xh[16:3],,,5xh[16:3],,,{8}6xh[8:1],
{32}3x,5xh[32:7],{16}6x,,,{8}6x,5x,{32}3x,4xh[32:7],{16}5x,,,3xh[4:1],4xh[16:3],,,,4xh[4:1]/2xh[16:3],
,,,2xh[8:1],,3x,1xh[16:3],,,8xh[16:3],,,7x,7x,
{32}5x,4x,{16}2x,{32}1x>3b[24:1],1x>3[24:1],{16}1x>3b[24:1],{32}3x<2[8:7],5x,{16}6x,,,{2}1xh[2:1],
{4},,3x>6[16:5],5x<7[16:1],
,7x>6[2:1],{2}5xh[4:1],
{4}7x<2[16:5],1x>3[16:1],,1x/8xh[4:1],
{32}1x,3x/7x,4x,6xh[32:9],{4},{48}4x,5x,4x,3x,,,{8}2x/8xh[8:1],{16}1x,7x/8xh[8:1],,6x,{8}5x/8xh[8:1],
{16}4x>6[8:1],3xh[16:3],,,,,{8}5bxh[16:1],6x/4xh[8:1],{16}5x,3x/4xh[8:1],,2x,{8}1x/4xh[8:1],
{16}8x<2b[8:1],7xh[16:3],{32},,,,,,,,1x,1x,{16}1x,{8}6x/8xh[8:1],{16}7x,3x/1xh[8:1],,2x,{8}7x/5xh[8:1],
{16}4x-8[16:1]*-6[16:1],3xh[8:1],,,,,,6xh[8:1],{32}8x,7x,{16}5x,5xh[8:1],{32}1x,7x,{16}6x,6xh[8:1],{32}8x,7x,{16}5x,
5xh[8:1],{32}1x,7x,{16}6x>4[16:1],{32}5x>3b[24:1],5x>3[24:1],{16}8x,8x,,,{8}1xh[8:1],{16}2x,6x/1xh[8:1],,8x,{8}4x/1xh[8:1],
{16}2x,1x/6xh[16:3],,,{4}7x-3[16:1],{8}5xh[8:1],{16}4x,8x/5xh[8:1],,6x,{8}2x/5xh[8:1],
{16}4x,5x/8xh[16:3],,,{4}7x-3b[16:1],{8}5x-7[16:1],3x-1[16:1],7x,1x,
{16}6x-8[24:1],6x,3x-1[24:1],3x,8x,6x,1x,3x,6x-8[24:1],5x-7[24:1],3x-1[24:1],4x-2[24:1],{32}8x,6x,{16}5x,{32}1x,3x,{16}4x,
{32}5x<4[32:7],B4,B3,B2,B1,B8,B7,B6,{4}5x,{32}5x-3b[24:1],6x-4[24:1],7x-5[24:1],8x-6[24:1],1x-7[24:1],2x-8[24:1],3x-1[24:1],4xV26[32:7],,,,,,,,,,,,,,,,,{8}5x-3<4-2b[8:1],
2x>3-1>2-8[8:1],{2}8x>1-7>8-6<7-5<6-4[16:7],
{8},,2x<8b[8:1],8x<6z2<4[48:37],{2}6x>2z6[2:1],
{4},,3xh[8:1]/1x<3[16:7],2xh[8:1],
8xh[8:1],8xh[8:1]/2xp8<5>1[8:5],{8}6x<8[16:1],4x<6b[16:1],,,,,7x/6xp5>1<6[8:5],
5x,3x<5[16:1],8x>2b[16:1],,,,,8x/E3,
8x/B4,{4}5xh[8:1]/Ch[2:3],3xh[8:1],
6xh[8:1]/B6,1xh[8:1]/B1,4xh[8:1]/B4,8x-4[32:1],
{16},,,4x,5x,6x-8[24:1]/3x-1[24:1],5x,4x,1bx/8bx,6x/3x,4x,5x,{32}7x/2x,1x,{16}6xh[8:1],8x,8x,
5x,6x/5x,{32}7x,8xh[32:3],{16}1x,3x,3x,{32}6x,5xh[32:3],{16}4x,1x,7x/1x,8x/2x,8x,{32}3x-1[24:1],4x-2[24:1],{16}5x-3[24:1],7x,7x,
{32}8x/E2,E3,{16}E4,,6x,5x-7[24:1],4x-2[24:1],1x,8x,7bx,2bx,6x,6x,{32}2x/5x,4x,{16}1xh[8:1],3x,3x,
4x,4x/3x,{32}6x,7xh[32:3],{16}8x,1x,1x,{32}7x,6xh[32:3],{16}5x,2x,2x/8x,3x/1x,1x,{32}4x-2[24:1],5x-3[24:1],{16}6x-4[24:1],8x,8x,
{32}1x/E3,E4,{16}E5,,,6x-8[24:1],3x-5[24:1],2x,2x,8bx,5bx,7x,7x,5x-7[16:1],8x,8x/1x,1x,
7x,3x,4x/3x,3x,5x-3[16:1],2x,2x/1x,1x,3x,7x,6x/7x,7x,3x-1[24:1],4x-2b[24:1]/5x-3[32:1],6x,6x,
{32}8x/E2,E3,{16}E4,,5x,3x-1[24:1],6x-4[24:1],7x,7x,1bx,4bx,3x,3x,4x-6[16:1],5x,5x,5x,
6x-1[16:1],2x,2x,2x,1x-4[16:1],5x,5x,5x,4x,8x,8x,8x,4x-2[24:1],5x-3b[24:1]/6x-4[32:1],7x,7x,
{32}8x/E3,E4,{16}E5,,6x,6xh[16:1],1xh[16:1],{48}7x,8x,7x,6x,,,{8}1x-3[16:1]/4x-2[16:1],1x/4x,,,8x-6[16:1]/5x-7[16:1],
8x/5x,,,2xV46[8:1]/5x-3[16:1],5x/2x,,,1xV75[8:1]/6x-8[16:1],
6x/1x,,,5xV31[8:1]/2x-4[16:1],6x/8x,,6xV82-4[24:5],
1x/5x-3[12:1],,,8x>6[16:3],8x<6[16:1],{16},,,,3xh[8:5],4x,
,,,,,,,,{2}5x>4[4:11],,,
,,,4xh[2:2],,
{64}5xp3[32:7],6xh[64:15],,,,,,,,,,,,,,,{4}5x,{64}2x>1[32:7],1xh[64:15],,,,,,,,,,,,,,,{4}2x,
{32}2x-8b[24:1],3x-1[24:1],4x-2[24:1],5x-3[24:1],6x-4[24:1],7x-5[24:1],8x-6[24:1],1xV73[16:3],,,,,,,,,,,,,,,,,{8}1x,8x,
{32}7x>1b[24:1],6x<8[24:1],5x<7[24:1],4x<6[24:1],3x<5[24:1],2x>4[24:1],1x>3[24:1],8x>2>7b[32:9],,,,,,,,,,,,,,,,,{8}1x>6[16:5],3xz7[4:1],
{1}5x<7>8z4>3>2<1<8[8:5],
{4}6xh[8:1]/8x>6[16:7],7xh[8:1],1xh[8:1],{8}7x/1x-5-1[4:1],3x,
1x>1>3[8:3]/4x-2[16:1],8x-6b[16:1],,,,,6x/4x-8-4-2-8-6-4-2[8:5],2x,
4x/1x>3[16:1],5x<7b[16:1],,,,,1x/E7,1x/B5,
{4}4xh[8:1]/Ch[2:3],6xh[8:1],3xh[8:1]/B3,8xh[8:1]/B8,
5xh[8:1]/B5,1x-5[32:1],{16},,,3x-5>4-6>5-7<6-8<7-1<4b[16:11],{4}3x-5>4-6>5-7<6-8<7-1<3[4:3],
{16},,,,,,,,,,,,5x-7[24:1],5x-3[24:1],,,7bx,
3bx,8x,8x,{32}6x,5x,{16}3x,1x,1x/8x,{48}2x/5x,3x,6x,4x/7x,,,{16}8x/5x,5x/8x,{48}7x/4x,6x,3x,5x/2x,,,{16}1x/4x,4x/1x,
{32}5x,2x,{16}5x/3x,{32}7x,4x,{16}5x/7x,{32}3x-5[24:1],2x-4[24:1],{16}1x-3[24:1],6x,6x,{32}5x/3x,2x,1x,8x,,,,,{16}5x,5x-3[24:1]*-7[24:1],1x,1x,
{32}3bx/7bx,6x/4x,,,{16}1x,1x,{32}7x,8x/2x,{16}3x,4x,4x/6x,{48}3x/8x,2x,7x,1x/6x,,,{16}5x/8x,8x/5x,{48}6x/1x,7x,2x,8x/3x,,,{16}4x/1x,1x/4x,
{32}8x,3x,{16}8x/2x,{32}6x,1x,{16}8x/6x,{32}2x-8[24:1],3x-1b[24:1],{16}4x-2[24:1],6x,6x,{32}8x/2x,3x,4x,5x,,,{16}7x,5x,8x/4x,2x,1x,
{32}2bx-8b[24:1],3x-1[24:1],4x-2[24:1],5x-3[24:1],6x-4[24:1],7x-5[24:1],{16}8x-6[24:1],{4}B8/E1,{32}1x-7b[24:1],2x-8[24:1],3x-1[24:1],4x-2[24:1],5x-3[24:1],6x-4[24:1],{16}7x-5[24:1],{4}B7/E8,
{32}8x<6b[24:1],1x<7[24:1],2x<8[24:1],3x>1[24:1],4x>2[24:1],5x>3[24:1],6x>4[24:1],7x<5s1[32:5],{4}B6/E7,{16},,,2x,4x,1x/5x,7x,8x,
{32}6bx>5-7b[64:3],5x>4-6[64:3],4x>3-5[64:3],3x>2-4[64:3],2x<1-3[64:3],1x<8-2[64:3],8x<7-1[64:3],7x<6-8[64:3],{4}B6/B7/E7f,{32}5x>4-6b[64:3],4x>3-5[64:3],3x>2-4[64:3],2x<1-3[64:3],1x<8-2[64:3],8x<7-1[64:3],7x<6-8[64:3],6x>5-7[64:3],{4}B5/B6/E6f,
{32}4x>3-5b[64:3],3x>2-4[64:3],2x<1-3b[64:3],1x<8-2[64:3],8x<7-1b[64:3],7x<6-8[64:3],6x>5-7b[64:3],5x>4-6[64:3],{4}B4/B5/E5f,{32}1xh[32:1],2xh[32:1],3xh[32:1],4xh[32:1],5xh[32:1],6xh[32:1],7xh[32:1],8xh[32:1],{48}7xh[48:1],6xh[48:1],5xh[48:1],4xh[48:1],3xh[48:1],2xh[48:1],8bxh,1xh/6xh,5xh,3xh,,,{2}4xh[1:2],
{8}1x,,,2x,
{16}3x,,,,,,,5x,,5x,,,,,,,{1}Ch[2:3],
{8},,,,5x>2[8:1],{48},,,,,,,,,,,,8x,1x,8x,7x,
E
