&title=cancellare
&artist=ざんぎ feat. 初音ミク
&first=0.0228
&des=Kurage
&lv_5=12+
&inote_5=(118.65){4},,,,
4-2[8:1],5,4-2[8:1],5,6-4[8:1],3,{8}2q3[4:1],2,4,,
{4}5-7[8:1],4,5-7[8:1],4,2-4[8:1],1,{8}7p6[4:1],7,5,,
3>6[4:1],,4,4,5pp5[4:1],,4,4,3h[8:1],,2h[8:1]/4h[8:1],,15,86,7-4[8:1]*<4[8:1],,,,2-4[8:1]/1,,5,,7-5[8:1]/8,,4h[8:4],,,,{24}5,,5,4,,4,6,7,8,1,2,3,
{8}5v2[8:1]/4,6,57,1,{24}4,,35,,,6,5,,5,7,,,
{8}1<6[8:1]/8,2,13,5,{24}3,,3,4,,2,1,,2,1,,,
{8}4v7[8:1]/5,3,42,8,{24}5,,64,,,3,4,,4,2,,,
{8}8>3[8:1]/1,7,86,4,{24}7,,6h[12:2]/5,,,,4,5,4,5,,,
{8}3/1p5[8:1],2,18,6,{24}3,,24,,,6,5,,5,7,,,
{8}3/4-8[8:1],2,45,7,{24}2,,2,1,,3,4,,3,4,,,
{8}6/8q4[8:1],7,81,3,{24}6,,75,,,3,4,,4,2,,,
{8}6/5-1[8:1],7,54,2,{24}7,,6h[12:2]/5,,,,4,5,4,5,,,
{8}4z8[4:2],,,,,,7-3[8:1],,
3h[4:1],,4,,6h[4:1],,5-3[8:1],5,8h[4:1],,1,,2q3[4:1],2,4,,
6h[4:1],,5,,3h[4:1],,4-6[8:1],4,1h[4:1],,8,,7<4[8:1],7,3qq8[8:3],,
6h[4:1],,,7,65,4,3/1qq7[8:1],8,7/1pp3[8:1],,3/1-5[8:1],,15,6,7-3[8:1],,
3h[4:1],,4,,6h[4:1],,5,,4h[4:2]/5h[4:3],,,,,,,,
{24}36,,4,5,,5,3h[8:1],,,4,,,6,,6,5,,5,7h[8:1],,,6,,,1,,1,8,,8,2h[8:1],,,1,,,4-7[8:1]/5-2[8:1],,,63,,,,,,,,,
63,,5,4,,4,6h[8:1],,,5,,,3,,3,4,,4,2h[8:1],,,3,,,8,,8,1,,1,7h[8:1],,,8,,,5<8[8:1]/4>1[8:1],,,36,,,45,,,,,,
25,,3,4,,4,3h[8:1],,,1,,,74,,6,5,,5,6h[8:1],,,8,,,52,,3,4,,4,1h[8:1],,,7,,,8-4[8:1]/2-6[8:1],,,37,,,28,,,,,,
73,,6,5,,5,7h[8:1],,,8,,,26,,3,4,,4,2h[8:1],,,1,,,
{4}4-8[8:1]/5-1[8:1],4-2[8:1]/5-7[8:1],45,{24}4,5,4,5,,,
3<6[8:1]/7,,2,1,,1,3,,,8,,,74,,7,5,,5,4,,4,2,,,
6>3[8:1]/2,,7,8,,8,6,,,1,,,25,,3,4,,1,8-6[8:1],,7,8-3[8:1],,,8-5[8:1],,,8-2[8:1],,,8-4[8:1],,,8,,,8,,,3,,,2v5[8:1]/6-1[8:1],,,37,,,26,,,,,,7/3qq5[4:1],,,6,,,5>3[8:1]*<7[8:1],,,,,,,,,,,,
6v3[8:1]/2,,7,8,,8,6,,,1,,,25,,2,4,,4,5,,5,7,,,
3v6[8:1]/7,,2,1,,1,3,,,8,,,74,,6,5,,8,1-3[8:1],,2,1-6[8:1],,,1-4[8:1],,,1-7[8:1],,,1-5[8:1],,,1,,,1,,,6,,,7<4[8:1]/3>8[8:1],,,62,,,37,,,,,,2v4[8:1]*<7[8:1],,,13,,,,,,,,,,,,56,,,
{8}3/1p5[8:1],2,18,6,{24}3,,24,,,6,5,,5,7,,,
{8}3/4>1[8:1],6,45,7,{24}2,,2,1,,3,4,,3,4,,,
{8}6/8q4[8:1],7,81,3,{24}6,,75,,,3,4,,4,2,,,
{8}6/5<8[8:1],3,54,2,6b,8b,2b,4b,
{24}3/8>3[8:1],,6,5,,5,8-6[16:1],,,4-2[16:1],,,8-4[8:1],,4,8,,8,5,4,3,2,,,
{24}6/1<6[8:1],,3,4,,4,1-3[16:1],,,5-7[16:1],,,1-5[8:1],,5,1,,1,4V28[8:1],5,6,7,,,
1/4V68[8:1],,,6,,,14,,,3,,,1w5[8:1],,,28,,,1,,,,,,7/3v8[8:1],,,2,,,7<4[8:1]/3,,,6,,,1s5[8:1]*v4[8:1],,,2,,,,,,,,,
{24}3/7>2[8:1],,6,5,,5,7-5[16:1],,,3-1[16:1],,,7-3[8:1],,3,7,,7,4,3,2,1,,,
{24}6/2<7[8:1],,3,4,,4,2-4[16:1],,,6-8[16:1],,,2-6[8:1],,6,2,,2,5V31[8:1],6,7,8,,,
6/5V71[8:1],,,8,,,45,,,2,,,4w8[8:1],,,35,,,4,,,,,,6<2[8:1]/2v4[8:1],,,4,,,26,,,,,,
{8}3/5-7[8:1],,4-2[8:1],,6h[4:7],,1,,2,,2,,3,,3,,4,,5-7[8:1],,
3h[4:7],,8,,7,,7,,6,,6,,5,,4z8[4:1],,
