&title=Speed Up!
&artist=DarTokki
&first=0.02
&des=IcreApte-100
&lv_6=13
&inote_1=
&inote_6=(145){1},
{1},
{4}1V35[4:3],7,7,7,
{4}7V13[4:3],5,5,5,
{4}5V71[4:3],3,3,3,
{4}4bw8[8:1],,2-4[8:1]/6-8[8:1],2/6,
{4}3-5[8:1],7-1[8:1]/3,2-6[8:1]/7,2/6,
{8}7-3[8:1],7,2-8[8:1],2,6-4[8:1],6,3s7[4:3],3,
{1},
{32}8h[4:1]/2x,3x,4xh[32:6],,,,,,,,,,6h[8:1]/4h[8:1],,,,,,1h[8:1]/2h[8:1],,,,,,3h[8:1]/7h[8:1],,,,,,,,
{16}4,6,3,5,1,8,1,8,7h[8:1]/2h[8:1],,,,3,4,3,4,
{16}2h[8:1]/5h[8:1],,,,6,5,7h[8:1],,1,6h[8:1],,2,5h[4:1],,,,
{16}3,4,2,2,5,4,6,6,4,5,3,3,6,5,7,7,
{32}4x,3x,2xh[32:6],,,,,,
{16}8,1,7h[8:1],,2,5h[8:1],,3,6h[4:1],,,,
{16}4,7,3,6,2,5,1h[4:1],,
{32}5x,6x,7xh[32:6],,,,,,
{16}2,8,2,8,
{16}3h[8:1]/7h[8:1],,,,4,5,3h[8:1],,8,2h[8:1],,7,1h[4:1],,,,
{1}6bV47[2:1]*z2[2:1],
{4}1-4[8:1]*-3[8:1],1-7[8:1]*-6[8:1],1s5[32:5],1,
{16}3x-5[8:1]/7x,,2,,3/7-3[8:1],,,,7-5[8:1]/8,,1,,7/8,,1,1,
{16}7-1[8:1],,6,,7/2-6[8:1],,,,8-3[8:1]*-5[8:1],,7,,8,,,,
{16}8x,,4,4,7,,4,4,6-8[8:1],,2h[4:1],,6b,,,,
{32}1h[4:1]/7x,6x,5xh[32:6],,,,,,
{16},,3h[8:1]/5h[8:1],,,7h[8:1]/8h[8:1],,,2h[8:1]/6h[8:1],,,,
{16}3,5,2,6,4,7,1,,2h[8:1]/8h[8:1],,,,6,5,6,5,
{16}7h[8:1]/4h[8:1],,,,1,8,2h[8:1],,,4h[8:1]/5h[8:1],,,1h[8:1]/6h[8:1],,,,
{16}7h[8:1],,2,3h[8:1]/8,,5,6h[8:3]/2h[8:3],,,,,,,,,,
{1}1>8[1:2],
{1},
{2}3xs7[4:1],8xh[2:1],
{2}5-3[4:1],7-5[4:1],
{2}1-7[4:1],3-1[4:1],
{8}5-3[4:1],5,,,7-5[4:1],7,,,
{8}1-7[4:1],1,,,3-1[4:1],3,,,
{8}5V31[8:3],5,,,8V64[8:3],8,,,
{4}1h[4:3],,,5h[1:0],
{16}1/5,,,,2/6,,,,3/7,,8,,2,1,2,1,
{16}3/8,,2,1,3,3h[8:1],,,5/3,,6,4,7,7h[8:1],,,
{16}1/7,,2,8,3,3h[8:1],,,3/5,,7,8,6,6h[8:1],,,
{16}2/6,,3,5,3,3h[8:1],,,7/3,,8,2,8,8h[8:1],,,
{16}8/4,,7,5,6,6h[8:1],,,1/6,,3,5,3,3h[8:1],,,
{16}7/3,,6,4,6,6h[8:1],,,2/6,,1,7,1,1h[8:1],,,
{16}1/5,,2,4,3,3h[8:1],,,8/3,,6,4,7,7h[8:1],,,
{16}7/3,,1,8,2,2h[8:1],,,2/6,,4,5,3,3h[8:1],,,
{16}8,2,8,2,
{32}7,6x,5x,4x,1,2x,3x,4,
{4}8b-4[8:1]*z4[8:1],8<1[4:5]`Cf,
{1},
{16},,,,,,,,1,8,3,6,2/7,,1,,
{16}2-4[8:1],,1,1,2,8,,,7-5[8:1],,8,8,7,1,,,
{16}2>5[8:1],,1,1,2,8,,,7<4[8:1],,8,8,7,1,,,
{16}2-4[8:1],,8,8,2,7,,,6-8[8:1],,4,4,6,3,,,
{16}2>5[8:1],,8,8,2,7,,,6<1[8:1],,4,4,6,3,,,
{16}2xV41[4:1],,1,1,2,8,,,7xV58[4:1],,8,8,7,1,,,
{16}2,,2,1,,3,,3,4,,2,5,,1,,1,
{1}8x<1[4:6],
{1},
{1}8x<1[4:2],
{1}8x<1[4:2],
{1}8x<1[2:1]/1xh[1:0],
{2}B7/B6,B2/B3,
(217.5)
{8}8/2pp5[1:1],,,8,,,8,,
{8},8,,,7qq4[1:1]/3,,,3,,
{8},3,,,3,,,
{8}3qq8[1:1]/5,,,5,,,5,,
{8},5,,,6pp1[1:1]/2,,,2,
{8},,2,,,2,,,
(290)
{4}8/2V48[4:5],8,8,8,
{4}7,7,7,7,
{4}2/7V51[4:5],2,2,2,
{4}3,3,3,3,
{4}7/4-8[8:3],7,7,7,
{8}1x,2x,3x,4x,5x,6x,7x,8x,
{16}1,2,3,4,5,6,7,8,1,2,3,4,5,6,7,8,
{1}Cf/1w5[8:3],
{8}7x-3[4:1],,,2x-5[4:1],,,8-4[4:1],,
{8}1bz5[2:1],,,,,,,,
{8}8x-4[4:1],,,2x-5[4:1],,,7x-3[4:1],,
{1}1bs5[2:1],
{4}2x-4[8:1]/6x-1[8:1],,5x,5x,
{4}7x-5[8:1]/3x-8[8:1],,4x,4x,
{16}1x,2x,3x,4x,5x,6x,7x,8x,1x,2x,3x,4x,8x,,,,
{16}7x,6x,5x,4x,3x,2x,1x,8x,7xh[2:1]/3x,,,,,,,,
{8}2x-6[4:1],,,7x-4[4:1],,,1x-5[4:1],,
{8}8bs4[2:1],,,,,,,,
{8}1x-6[4:1],,,7x-4[4:1],,,2x-6[4:1],,
{8}8bz4[2:1],,,,,,,,
{1}2x>1[8:11]/5xh[1:1],
{1},
{1}2xh[4:3],
{1}8<5[8:3]*>2[8:3],
{8}2x,4,3,5x,4,6,5xh[4:3],,
{16}7x,8x,1,2x,3x,4x,,6x,7x,,,,,,,,
{8}5x,7,4,6x,3,5,2xh[2:1],,
{1}4bs8[2:1],
{8}3x-8[8:1]/7x-5[8:1],,,,4x,,4x,,
{8}6x-1[8:1]/2x-4[8:1],,,,5x,,5x,,
{16}8,7,6,5,4,3,2,1,8,7,6,5,1x,,,,
{16}2,3,4,5,6,7,8,1,2h[2:1]/6,,,,,,,,
{8}4x,2,5,3x,6,4,7xh[2:1],,
{12}8b,1,2,3,4,5,7,,,,,,
{8}5x,7,4,6x,3,5,2xh[2:1],,
{12}1b,8,7,6,5,4,2,,,,,,
{8}1x,4,2,5,,6x,1,7,
{8}2,8,3,7,2,6,1,5,
{8}3,4,2,2,,3x,5,4,
{8}6,5,7,7,,6x,4,5,
{1}3>5[4:11],
{8},Ch[8:9],,,,,,,
{1},
{1}1b-5[8:1],
