&title=ニニ
&artist=テヅカ / Qayo
&first=0
&des=Caramelo.
&lv_5=13
&inote_5=(174)
{1},,,{4},,,{16}6,5,4,3,{8}1h[4:2],,,,{4}2pp5[1:1],,8,8,8h[4:1],,
4h[4:1]/6,3h[4:1],2V48[2:1],{8},6,{4}6h[2:1],,{8}8,,{4}27,
{8}8h[4:2],,,,{4}7qq4[1:1],,1,1,1h[4:1],,
5h[4:1]/3,6h[4:1],7h[4:1],8-4[8:1]*-3[8:1],8b,{8},,{16}6,5,{8}6,38,,
4b/5,,3,4h[8:3],3,,3,4,35,,3,5h[8:3],3,,3,,
2b/6,,6,5h[8:3],6,,6,5,47,{16},56,,,{8}45,{16}3,4,{8}3,16,,
{8}45,3,45,6,45,2,54,7,65,2,34,7,65,82,34,17,
65,1h[8:1],2h[8:1],3h[8:1],4h[8:1],5h[8:1],6h[8:1],7h[8:1],{1}8<1[2:1],
4bq5[4:12]*>5[4:12],,,{4},,,6q2[8:1]*p2[8:1],{1}6>7[2:5],,,
{16}6,5,4,3,6,5,4,3,{16}6,5,4,3,{4}8-4[8:1]*>3[8:1],
,{16}6,5,6,5,{8}7h[8:1],4,2h[8:1]/5,{16}4,3,
{8}1q5[8:1]*>4[8:1],,,,{16}7-3[8:1],8,1,2,{8},,
{8}12,3,24,{16}5,5,{12}4,6,5,{4}7h[8:1]/4h[8:1],{16}2,1,3,8,4<8[8:1],5-8[16:1],{8}3,{2}4qq2[10:1]/5p1[10:1],
{4}8h[8:1]/7h[8:1],{16}2,1,2,1,{8}3h[8:1],8,26,{16}5,5,
{8}1>4[8:1],6<1[8:1],,,{16}2,3,4,5,{8}6b,,
81,6,75,{16}4,5,{12}3,4,1,{8}8,27,{16}6,4,5,3,7p3[8:1]*<4[8:1],2,{8}8,,,{16}1-5[8:1]/2,8,7,6,
{4}1,{16}3,4,3,4,{8}2h[8:1],5,7h[8:1]/4,{16}5,6,
{8}8p4[8:1]*<5[8:1],,,,{16}2-6[8:1],1,8,7,{8},,
{8}87,6,75,{16}4,4,{12}5,3,4,{4}2h[8:1]/5h[8:1],{16}7,8,6,1,5>1[8:1],4-1[16:1],{8}6,{2}5pp7[10:1]/4q8[10:1],
{4}1h[8:1]/2h[8:1],{16}7,8,7,8,{8}6h[8:1],1,73,{16}4,4,
1-5[8:1],8,7>2[8:1],6,{8},,{16}3,4,5,6,{8}7b,,
18,3,24,{16}6,5,{12}8,3,4,{8}1,72,{16}3,5,4,6,2,5,4,7,
1,6,3,7,5,8,2,{32}6,5,
{1}4b>4[4:11]/1h[1:4],,,,{2}3h[2:1],8h[2:1],6h[2:1],3h[2:1],2qq7[4:3],,,1,
{8}4V62[2:1]/5,,6,6,,8,8h[4:1],,3V51[2:1],,5,5,,7,7h[4:1],,2V48[2:1],,4,4,,6,6h[4:1],,
1pp5[2:1],,,,,,7b,,
2-5[8:1]/4,,1,,7-4[8:1]/5,,8,,24,1,57,8,26,1,37,8,
12,75,34,15,7h[8:1]/3,5h[8:1],3h[8:1],1,
{16}1,{8}4,{16}7,{8}5,{16}3,4,{8}2v5[8:1],8,{4}2b/6b,
{8}7/8,{16}6,6,{8}5h[8:1],7,6/2h[8:1],4h[8:1],8h[8:1],5h[8:1],3,6,2-8[8:1]/7v4[8:1],8/4,{4}2/7,{8}1/6,{16}8,7,{8}8h[8:1],{16}4,6,{8}4h[8:1],{16}8,7,{8}8-4[8:1],6,8/1,2,6/1,{16}8,7,{8}2h[8:1],{16}8,1,{8}6V42[16:3],78,3b,{16}1,1,{8}1h[8:1],7h[8:1],5h[8:1],8,
73,2,63,5<8[8:1],3,1-5[8:1],2,1/6,8>3[8:1],3V51[4:1],5<8[8:1],5,{4},
{8}17,16,1h[8:1]/5,{16}4-1[8:1],2,{8}8-5[8:1],4,{4}8,{8}16,2,{16}7-3[8:1]/3-7[8:1],6/2,{8}5/1,{4},
{8}2/1,{16}3,3,{8}4h[8:1],2,3/7h[8:1],5h[8:1],1h[8:1],4h[8:1],6,3,7-4[8:1]/2-6[8:1],1/5,{4}7/2,{8}8/3,{16}1,2,{8}1h[8:1],{16}5,3,{8}5h[8:1],{16}1,2,{8}1-5[8:1],3,1/8,7,3/8,{16}1,2,{8}7h[8:1],{16}1,8,{8}3V57[16:3],21,6b,
{16}8,8,{8}8h[8:1],3h[8:1],7h[8:1],5,1/6,{16}3<6[8:1],4,{8}2,5,7h[8:1],4h[8:1],1h[8:1],3,2/7,{16}3,5,{8}8>3[8:1]*<5[8:1],1/7,{4}8,{8}4,4h[8:1],8,37,2-4[8:1]/6v4[8:1],15,{4}2v8[8:1]/6-8[8:1],2/6>3[8:1],1w5[8:1],1b,
{8}8/2>5[8:1],{32}7,6,{16}5,{8}2,8-3[8:1],7,8/5-1[8:1],4,85,
{8}7<4[8:1],{32}2,3,{16}4,{8}7,1-6[8:1],2,1/4-8[8:1],5,14,
{8}2>5[8:1],{32}7,6,{16}5,{8}2,8-4[8:1],7,81,2,16,
16,{16}8,7,{8}1,2p5[8:1]/6qq5[8:1],5>1[8:1]*<8[8:1],,{4},
{8}7<4[8:1],{32}3,2,{16}1,{8}7,8-4[8:1],5,6<1[8:1]/8,7,36,
{8}2>5[8:1],{32}6,7,{16}8,{8}2,1-5[8:1],4,3>8[8:1]/1,2,63,
7h[8:1],{32}1,2,{16}3,{8}65,8,2h[8:1],{32}8,7,{16}6,{8}34,1,
{4}2q6[8:1]/6q2[8:1],2<7[8:1]/6>3[8:1],26,{16}1<2[4:6]/5,26,37,48,
{1}1b/5h[4:6],,{4}8b-5[8:1]/1-4[8:1],1b/8,{2},{4}4b-1[8:1]/5-8[8:1],{8}5b/4,,{8}7h[8:1],3,15,,
7-3[8:1],{32}2,3,{16}4,{8}7,1-5[8:1],5-3[10:1],1,7,7,2/6-2[8:1],{32}1,2,{16}3,{8}6,4h[8:1],{16}8,1,7,2,{8}6,{16}4,5,{8}36,{16}1-5[8:1]/8-4[8:1],27,{8}36,{4}1>4[8:1]/8<5[8:1],1pp8[4:1]/8qq1[4:1],18,
{8},{4}2h[8:1]/4h[8:1],7h[8:1]/5h[8:1],18,{8}27,{16}3,4,{8}1h[8:1],{16}6,5,{8}8h[8:1],{16}3,4,{8}2h[8:1],{16}6,5,{8}7h[8:1],{16}3,4,{8}3h[8:1],{16}6,5,{8}6h[8:1],{16}4,5,{4}4h[4:1],
8b<1[8:64],,,2h[2:1],,,1,,8,8h[2:1],,,7bp3[4:1],,,3pp5[4:1],,,5p4[1:1],,
,,,,,,,,,,,,,,{64},,,,,,,2b,,,,,2bz6[8:1]*z6[8:1],
