&title=D/N/A
&artist=Azari/重音テト・Flower
&first=-0.2
&des=~AnonTokyo@絵~
&lv_5=13
&inote_5=(150){4},,3/4,6/5,
{2}Ch[4:1],{4}2-5[4:1],2,
6-1[4:1],6,4-8[4:1],4,
7p6[4:1],7,5>2[4:1],5,
8<5[4:1],8,2qq3[4:1],B6/B7,
Cfh[4:1],E7/B6/B7/B2/B3/E3,1-4[4:3],8,
{16}8,,,8,,,{8}8,{4}8-5[4:3],2,
{16}2,,,2,,,{8}2,{4}2v7[8:5],5,
{16}5,,,5,,,{8}5,{4}5/E1/B8/B1,8/B4/B5/E5,
{8}1-6[8:1]*-4[8:1],2/8,{4}1,6h[4:3]/E6,E4,
8,2-8-4-6[2:1],2,5,
8-5b[8:1]*-3[8:1],8,3h[4:3]/E4,E6,
1,7-4[8:1],7/4-8[8:1],1q7[8:3]*>6[8:3],
{2}1,{8}8xh[2:1]/B7,B6,B5,4,
{4}3>8[8:1],3x/6x,{8}7xh[2:1]/B6,B5,B4,3,
{4}2<7[8:1],2x/7x,6h[8:1]/5xh[8:1],2h[8:1]/4xh[8:1],
8h[8:1]/7xh[8:1],3xh[8:1]/1h[8:1],2<6[4:1],6>2[4:1],
{8}C,B8/B7,B6/B5,1,{4}2>5[8:1],1/2,
{16}6,,,6/7,,,{8}8/7,1,3h[8:1],2,3h[8:1],
{2}4<7[8:1],{4}7<4[8:1],8/7,
{16}3,,,3/2,,,{8}1/2,{4}8h[4:1],6h[4:1],
{8}5-8[8:1],4,3,2,1-5[8:1],5-1[8:1],{4}1<3[4:1],
{8},,E1,E7,2-6[8:1],6-2[8:1],{4}2<4[4:1],
{8},,8,7,{4}6h[8:1]/4h[8:1],2h[8:1]/5h[8:1],
4h[8:1]/7h[8:1],6h[8:1]/2h[8:1],1>5[4:1],5<1[4:1],
{8}1v6[8:1]*-4[8:1],1,,,{4}5xh[4:1]/B5,C,
4xh[4:1]/B4,B8,6xh[4:1]/B6,3pp7[2:1],
{2}3xh[4:1],{4}8xh[4:1]/B8,C,
1xh[4:1]/B1,B5,{8}7xh[8:3]/B7,,,3,
7/3xh[8:3],,,6,{2}Ch[4:3],
{16},,,,,,,,3x,4,4,4,3x,4,4,4,
2x,5,5,3x,6,6,4x,4,7x,5,6,2,4x,3,5,5,
{4}4x-1[8:1]*-7[8:1],4,{16}6x,5,5,5,6x,5,5,5,
7x,5,5,7x,5,5,6x,6,2x,4,3,7,5x,6,4,4,
{4}5x-8[8:1]*-2[8:1],5bx/Cf,8/1p4[8:1],1/5p8[8:1],
{16}5/3,,,2,,,{8}1,8/6,{16}7,5,,6,{8}4,
{4}5-1[8:1]/3-1[8:1],3b/5b,8/2<7[8:1],2/6>3[8:1],
{16}6,,,2,,,{8}1,8h[8:1]/7h[8:1],C,1h[8:1]/2h[8:1],C,
6h[4:1]/3h[4:1],,,2/7,{4}8/1bq5[4:1],5<1[4:1],
1p5[4:1],5>2[4:1],2<7[4:1],7v4[8:1]*v2[8:1],
{8},,3,2/4,{4}1/5bp1[4:1],1<5[4:1],
5q1[4:1],1>4[4:1],4q7[4:1],1-5[8:1],
{8},B7,{4}C,4/3h[16:3],{8}2/4,C,
{4}5/6h[16:3],{8}5/7,C,1h[8:1],3,8h[8:1],6,
{4}5-8[8:1]*-2[8:1],5,1/2h[16:3],{8}3/1,C,
{4}8/7h[16:3],{8}8/6,C,3h[8:1],1,6h[8:1],8,
{4}8q5[8:1]*p3[8:1],8bx,{2}4xh[8:3]/3xh[2:1],
4p7[8:1],6xh[2:1]/5xh[8:3],
5-1[4:1],{4}8x-4[8:1],8b/2-5[8:1],
2b/7-4[8:1],7b/1-5[8:1],1b/8<5[8:1],8b/1>4[8:1],
1b/5-8[8:1]*-2[8:1],Cf,1xh[4:1]/8xh[8:1],8xh[8:1],
{16}8xh[16:3]/1h[8:1],,,1h[16:3],,,,,{4}8/2,{16}7/1,8,8,8,
8/E5f,,,E6f,,,{8}E7f,{4}1xh[4:1]/E8f,8x,
{16}1/8h[16:3],,,1h[16:3],{48},,,,,,{24}E8,B7,B6,{8}2x/E6,{24}E2,B2,B3,{16}7x/E4,,,4,
3-7[8:1]/5-1[8:1],3/5,5/3,3/5,{4}Cf,8/2p4[8:1],2/6p8[8:1],
{16}6x/5x,,,4,,,{8}3,2/8,{16}7,5,,2,{8}4,
{4}3q1[8:1]/5<8[8:1],3/5,2v5[8:1],2/6v1[8:1],
{16}6/4,,,3,,,{8}5/2,1/6-8[8:1],7,1-5[8:1]/6-4[8:1],2,
{4}1/6,{8}3/6,7/2,{2}1h[4:1]/8>6[2:1],
{16}6<3[2:1],,,4h[16:3],,,,,3pp6[2:1],,,4,,,{8}1,
{4}1,{8}1,2/8,{2}7h[4:1]/3<1[2:1],
{16}1>6[2:1],,,5h[16:3],,,,,6qq3[2:1],,,7,,,{8}8,
{2}8h[8:3],{8}7-3[8:1],,,2,
1-5[8:1],,,6,7-2[8:1],,,4,
3-6[8:1],,,7,8<5[8:1],,,2,
1>4[8:1],,,5,4/6-8[8:1],,,1,
{4}2-6[8:1],{8}1/2,8,{4}7<4[8:1],{8}7,3,
{4}2<7[8:1],{8}2,4,{4}5<8[8:1],{8}5,4,
{4}3q1[8:1],{8}3,5,{4}6pp6[8:1],{8}6,4,
{4}3v1[8:1],{8}3,5,{4}2h[8:1]/6h[8:1],7h[8:1]/3h[8:1],
{8}6/4,{16}7,5,,1,{8}3,4/1-5[8:1],2,1/7,6,
8-4[8:1],5,8/2,3,1/2-6[8:1],8,2/5,4,
2/3-7[8:1],8,3/1,2,8/3>1[8:1],4,3/5,6,
8/5<7[8:1],4,5/2,1,8/1>4[8:1],4,1/5,6,
5/7<4[8:1],3,7/8,1,2-6[8:1],6-8[8:1],2,4,
5-1[8:1],1-7[8:1],5,3,4-2[8:1],2-6[8:1],4,8,
7-1[8:1],1-6[8:1],7,3,4>1[8:1],1<6[8:1],4,5,
5-8[8:1],8>3[8:1],5,4,4-1[8:1],1<6[8:1],4,5,
4,5/3,{16}B5,B3,E7,E1,
E
