&title=神女劈观·唤情 Devastation and Redemption
&artist=HOYO-MiX
&first=0
&des=玩米的福报
&clock_count=4
&lv_1=0
&inote_1=(95)
{1},,,
{4}5p4[4:2]/4,,
{16},E2,E3,,,,,2h[48:23],
{12}3,4,5,6,7,8h[48:22],
{8}1,2,3,4,
{12},5,6,
{4}7,
{8}8q1[4:4],8,,,,,,,,,,,
{4}3V16[4:3]/7,,6,,5V72[4:3],,2,,4qq8[4:3],,5,,7pp3[4:2]*p4[4:2],,,,
2/8,1v4[4:1]*v6[4:1],,,5q8[4:1],,1q4[4:1],,
{4}6h[4:2],,5h[4:2],,4>5[4:2],
{8}B4,B3,B2,B1,B8,B7,
{16}7/4,,6,5,4/7,,8-4[8:1]/3,,4/7h[8:2],,,,,,,,
2/5,,3,4,5/2,,1-5[8:1]/6,,5/2h[8:2],,,,,,,,
3/8,,2,1,8/3,,4-8[8:1]/7,,8/3h[8:2],,,,,,2,,
{1}8<5[4:1]/4p1[4:2],
{4}6h[4:2],5,Cf,3,2h[8:3],
{16},,5,6,7h[4:1],,,,5,,
{24}5,6,4,
{8}5h[4:1],,6,,
{16}3,4,5,6,
{32}1,2,3,4,5,6,7,8,
{16}1b,5,3,7,4,8,2,6,
1,2,3/5b,6,4,3,8,7,
2,5,6/1b,7,1,6,3,4,
2b/5,1,8b/2,7,3b/6,4,5b/2,6,
{16}7b/3,4,6,2,5,1,7,3,
8,7,6/4b,3,5,6,1,2,
7,4,3/8b,2,8,3,6,5,
7,8,1b/7,2b,
{32}3/6,5,4,3,2,1,8,7,
{16}2/6,,3-8[16:1],4,,4,3,,2/7,,6-1[16:1],5,,5,6,4,3/8,,2-5[16:1],1,,1,2,,3/6,,7,1h[4:1],,7,6,5,
4/1,,2-5[16:1],5,,5,2,,4/6,,7-3[16:1],3,,3,7,,2/4,,1-5[16:1],5,,5,1,,
3/7,,4/5,3,1/2,8,7/5,6,
3V51[8:1]/5,,1-4[16:1],1,,8,8,,3/7V58[8:1],,8-4[16:1],8,,1,1,,2V84[8:1]/6,,4-1[16:1],4,,5,5,,2/5V74[8:1],,4-8[16:1],4,,1,2,3,
{16}4,4,5,3,6,6,5,7,3,3,4,2,7,7,6,8,
{8}1b-4[16:1]/2b,5b-8[16:1]/6b,1b/7b,5b/3b,
{24}2b,3,4,5,6,7,1,2,3,4,5,6,
{8}2qq6[4:3]/7,,,7,
{64}E7,B6,B5,,,,,,
{8},,5,5>6[4:3],,,,
{32}E7,E6,E5,E4,E3,,,,,,,,
{8}4,3qq1[4:1],,1qq7[4:1],
6,
{64}E6,B5,B4,,,,,,
{8},5,,3,2,1pp3[4:1],,3pp5[4:1],4,6,,
{8}7p5[4:1],5,4,3,2p8[4:1],8,7,6,5p3[4:1],3,2,1,Cfh[4:1],,,,
{8}3q5[4:1],5,6,7,8q2[4:1],2,3,4,
5-1[4:2],,,E3,E4,,E8,,E7,,,,E4,,E6,,E3,,,
{16}B4,B5,B6,,,,,,E8/B6,,
{16}3,4,5,6,3,4,5,6,3,4,5,6,3,4,5,6,
2/7,4,5/3,6,2/7,4,5/3,6,7/8,1/2,3/4,5/6,
{32}7/1,8,1,2,3,4,5,6,
{16}3/7,2,8-4[16:1],1,7,,6/8,,3/5,6,2-6[16:1],7,1,,2/6,,
8,2,3/7-3[16:1],,6,4,3/7,,1/5,,
{32}2,3,4,5,8,7,6,5,1,2,3,4,
{16}5/7,8,4-8[16:1],1,3,,2/4,,1/7,2,6-2[16:1],3,5,,6/2,,1,3,4/8-4[16:1],,7,5,4/8,,2/6,,
{32}7,6,5,4,8,7,6,5,1,8,7,6,
{16}2/5,3,6-2[16:1],4,7,,8/6,,1/7,6,2-5[16:1],5,3,,
{32}2/6,,8,7,
{16}6-1[16:1]/4,3,5-2[16:1],3,2/6,,5/8,,1/6,,
{32}2,3,4,5,6/8,1,2,3,4/7,8,1,2,
{16}7b-3[16:1]/3b,,,,2b/Cf,,,,2/1,3,5/4,6,8-4[16:1]/7-3[16:1],,5/2q5[4:1],,8/7,,,,6,,6,,6b/4b,6/4,7b/3b,7/3,
{32}2b,1,8,7,2b/6,1/5,8/4,7/3,
{16}2b-6[4:1]/6,,,,,,,,
{4}8q1[4:8]*q1[4:8],
{24},,,E1,E2,E3,
{4}E4,,,,,,,,
{8}1/7,2,3,4,3/5,6,7,8,1/6,2,3,4,8/5,7,6,5,
4/6,3,2,1,2/8,7,6,5,4/7,3,2,1,7/8,6,5,4,
3/6,4,
(85)
{8}5,
(81)
{8}6,
(75)
{8}2/7,
(70)
{8}8,
(50)
{8}1,2,
(95)
{4},
{48}3,4,5,6/3b>6[4:4],,,
{4},,,,,,,,
{8},,,Cf,,,,,,,,
E
