&title=Colors After Rain
&artist=Mono. & Reku Mochizuki
&first=0.058
&des_1=NiGHT WOlVE
&des_2=NiGHT WOlVE
&des_3=NiGHT WOlVE
&des_4=NiGHT WOlVE
&des_5=NiGHT WOlVE
&lv_5=13+
&des_6=NiGHT WOlVE
&des_7=NiGHT WOlVE
&des=NiGHT WOlVE
&inote_5=(195),,,,,
{8}Ch[4:3],,,,,,1xh[4:1],,,6,6h[4:1],,4,3h[8:3],,,,6,6,,75,7h[8:3]/5,,,,4,3h[4:1],,5,5h[8:3],,,1h[4:1],,7h[4:1],,3h[4:1],,6xh[4:1],,,45,45,,3,4/2h[8:4],,,,,,3,4,3,2h[4:1],,4,5h[4:1],,1h[8:3],,,8<4[4:1],,,,2,,34,5,6bh[2:1],,,,4>8[4:1],,6,7b<4[4:1],,,,,8,1,2,3bh[8:3]/4q8[4:1],,,,,4,7,8,1b-5b[4:1]/2b,,3,3h[8:3],,,5x-8b[8:1],,,1,1,2h[8:1]/7,7,6h[8:1]/3,3,4h[8:1]/5,5,6x,47,3xh[4:1],8,7hx[4:1],5,4xh[4:1],6,6xqq1>8[4:6],,,,,,,,,,,,,,
{8}B8/B1,,1b,2,35,3h[4:1]/5,,6,7,7h[4:1]/5>2[8:1],,,8,8,74,6,25,3,8,7,64,6h[4:1]/4,,3,2,2h[4:1]/4<7[8:1],,,1,1,25,3,74,6,5b,3,26,2h[4:1]/6-2-7[4:1],,,3,3<5[8:1],,3/8h[8:1],,7,6,45,3,2,1bh[4:1],6,6,6h[8:1],,62,37,4bh[8:1]/8bh[8:1],,
{16}E1,E2,E3,E4,E5,E6,7xh[4:1],,,,
{8}1h[4:1],,5b,,53,,5,,54,,54,,5,3,5,4h[4:1],5,,4,,4,,4,,45,6h[4:1],4,,46,,45,,4,4,5<7[4:1]/3x,,3,,3,,37,8h[4:1],3,,3/7h[8:1],,3/6h[8:1],,4-1-7[2:1],5,6,,6,,6,6,8,
{16}8,7,8-6-4[4:1]*-2-4[4:1],,,,,,,,,,,,4,5,4,5,
{8}4x>1[4:1],,5,,5,,B5/4,,E7/3,,B7/2,B8,2,E8,1,7xh[8:3],E2,,B2,,B3/6,,6/E4,5h[4:1],4,,
{16}4,,,,46,,3,,24,,5,,6-8[8:1]*-4[8:1],,,,6b,,,,
{8}13,,35,,47,,6/E2,,45,,25,3/4,3,35,3,36,
{24}3/E8,E7,E6,
{8}E5,3,2,1h[8:1],5h[8:1],3h[8:1],7h[8:1],,45,4<2[1:2],,Cf,,,,,,,,,,,,,,,,,,,,,,,,,,,,,,,,6h[1:1],,,,,,,,4h[2:1],,,,5,,,,5-2-7-1[1:1]/3h[2:1],,,,,,,,E5h[2:1],,,,B5/B4,,36,,2x/7x-5-1[2:1],,3,,3,,E3,,2-8-4[2:1],,8,,7,,6,,54,54,,E7/B6/B7/B4/B3/E4,,E6/D6/A5/A2/D3/E3,,7b/1b,,26,35,4,5bx-1[8:1],,,,2>7[1:1],,,,,,,,,,,,,,,,6<3[1:1],,,,,,,,Ch[4:3],,,,,,,,8b<5[4:1],,4,3,2h[4:1],,4,5,,4,3,4,5,6b<1[8:1],,6,2bqq5[2:1],,8,7,6h[4:1],,,6,6b/5b,6,4,7,
{16}1-4b[8:1],8,1,8,1,,,,
{8}6b,5,34,34,2b,1,78,78,6b/1b,
{16}2,5,3,,3,,8b/3b,,7,4,6,,6,,4,5,4,5,3,6,3,6,2,7,2,7,1,8,1,8,1,,,,Chf[4:3],,,,B7h[2:1],,,,B2h[4:1],,,,,,,,
{16}45,,45,,2,,2,4,3,,4/6<1[8:1],,,,56,,4,,3,,2-6[8:1],,6-3[8:1],,2,,8,,7,,7,4,6,,3>8[8:1]/5,,,,34,,5,,6bh[8:1],,1,,2h[8:1],,5,,7h[8:1],,4,,8,,8-4b[8:1],,,,
{24}1b/8b,B8,Cf,B4,,,
{16}2q6[8:1],,,,12,,8,,7b<4[8:1],,1b,,7,,,,3,,3bh[4:1],,,,4-8[8:1],,,,4b/5b,,,,6<2[4:1],,6,,2p4[4:1],,,,3,,3,,3,,2,1,2,1,2,1,2,1,
{48}D3,A3,D4,A4,D5,A5,D6,A6,D7,A7,D8,A8,D1f,,,,,,,,,,,,
{16}25,,3,4,3,,2,,8-4[8:1],,2-5[8:1],,8,,2,,6,,7-5[8:1],,8,,4-1[8:1]/7,,3,,45,,6,7,8,,1b/8b,,78,,56,,43,,1b/5b,,6b-1b[8:1]/2b-5b[8:1],,,,2b/6b,,,,84,73,62,,5bx-8[8:1]/1xb-4[8:1],,,,,,,,
{8}7xb,65,6,64,6,63,6,62,6,25,2,26,2,
{32}1,2,3,4,5,6,7,8,1,2,3,4,5bh[8:1],,,,
{16},,7b/E4f/A4/D4,,,2b/E6f/A5/D6,,,1b/A6/E7/B6f,,,8b/B2/B3/E3f,,,Cf,,B3h[4:1],,,,B4h[4:1],,,,B5h[4:1],,,,B6h[2:1],,,,Chf[4:1],,,,,,,,18,,2,4,3,,35,,18,,7,5,6,,64,,2,,3,,47,,6,,45,,3,4,,4,5,,6-8[8:1],,5,,6,,3,,2-4[8:1],,1,,2,,8,,7,,64,,64,,53,,1b/8b,,7,5,6,,64,,81,,2,4,3,,35,,7,,6,,52,,3,,54,,6,5,,5,4,,3-1[8:1],,4,,3,,6,,7-5[8:1],,8,,7,,1,,2,,35,,35,,46,,7bh[4:1]/5b,,4b,,3bh[8:1],,,,8-4b[8:1],7,6,5,4/8b,Cf,,,25,,3,4,3,,25,,47,,6,5,6,,47,,8-4[8:1],,3-1[8:1],,8,,3,,5b,,6,,73,,28,,1>4[8:1],,5<8[8:1],,1,,5,,3h[8:1],,,3,,,24,,1b/5b,,,3b/7b,,,6b/2b,,1>5[4:1],,1,,6,,6,,7,,7,,4b/E8h[8:1]/B8h[8:1]/E1h[8:1],,,,8<4[4:1],,8,,3,,3,,2,,2,,5b/E2h[8:1]/B1h[8:1]/E1h[8:1],,,,
{32}2bx,3,4,,,,2bx,3,4,,,,1bx,2,3,,7bx,6,5,,,,7bx,6,5,,,8bx,7,6,,,
{16}1bh[8:1],,,,7b-4[8:1]/3b-8[8:1],,,,3b-6[8:1]/7b-2[8:1],,,,37,,,,4bqq1[4:7]/8bqq5[4:7],,,,,,,,,,,,,,,,,,,,,,,,,,,,,,,,,,,,,,,,,,,,,,,,,,,,,,,,,,,,,,,,,,
{24},A2,A3,A4h[4:1],,,,,,,,,,,,,,,,,,,,,,,,
{16}6,,,5,,,4,,,3,,,2,,,1h[16:6],,,,,,
{24}7,6,5<5[1:3],,
E
