&title=Contra (feat. Sara Skinner)
&artist=Pixel Terror
&first=3.85
&des=Zamykal
&lv_5=13+
&inote_5=(125)
{8}
2pp5[8:9],
{4}
,,,,
{8}
7pp4[8:7],
{4}
,,,3>6[4:3],,,,,A5,D5,A4,3h[8:9],B8,B6,,
{8}
,5,5h[2:1],,4h[2:1],,,,,6,5h[4:1],,7h[2:1],,,,Ch[1:1],,E8,,E7,,,,,,
5,,4h[4:1]/6h[2:1],,,,,3,4,,2h[4:1]/5h[2:1],,,,1-5[2:1],8,8h[4:3],,,,,,5>2[2:1],6,6h[4:3],,,,,,,,1/7,,2h[2:1]/8h[2:1],,,,,3/5,3/5,,4h[2:1]/6h[8:3],,,,5-1[2:1],5,3h[4:3],,,,,,8<5[2:1],8,2h[4:3],,,,,,4bh[4:1],,1h[4:1],,8,8,1,1,7h[4:1],,6h[4:1],,5h[2:1],,4,,3,3,2h[4:7]/4h[2:1],,,,,,E5,E6,E7,,,,A8/E1/E8,,1b<6[4:1],,4,3,2,1,5,5,4h[4:1],,3h[4:1],,2h[4:1],,C,,8-4[2:1],8,7h[4:3],,,,,3,
{16}
3h[16:3],,,4h[16:3],,,5h[8:3],,,,,,E8,B7,B6,E6,
1b,,,,2h[4:1],,,,4h[16:3],,,3,,3,,,E8,B7,B6,E6,E2,B2,B3,E4,6,5,6h[8:3],,E8,E1,E2,E3,E4,,,,7h[4:1],,,,5h[16:3],,,6,,6h[16:19],,,4,,4,,3,,3,,D2/E2,,,,D1/E1,,,,7b>4[1:1],,,,5,,,,5,,,6,,6,,,7,,,,7,,,,8,,,,
{12}
1,8,1,
{16}
2/7,,2/7,,3/4,,3/4,,5/6,,5/6,,7/8,,7,8,6,5,8,1,5,4,1,2,1,,,,
2-4[12:1]/8qq5[2:1],,,,8b/A2f,,,,4x-2-8-3b[8:3],,3,,4,,6,,6-2[8:1],,7,,6,,4,4,3/5,,7,7,5,6,3,4,2qq4[2:1]/5-7[12:1],,,,2b/A5f,,,,7xV58b[4:1],,6,,7,,4,,3,,2/5,,2/5,,1,1,6,5,,5,7,8,5,4,2-5[12:1]/6pp4[2:1],,,,6b/A2f,,,,3x-8b[8:1],,2,,3,,5,,5,,4/6h[8:1],,8b,,6,6,1,1,7,7,2,1,4,5,3-8[12:1]/6qq1[2:1],,,,6b/A3f,,,,2x-5b[8:1],,3,,2,,8,,4>8[4:1]/7,,,,7,7,,6,6,,5h[8:1],,8,8,6,6,5/7-3[12:1],,8xh[1024:1],,
7b-1-5b[4:1]/A1f,,,,2-4[8:1],,3,,2,,6,,5/7,,1/8,,1/8,,2,2,4,4,3,3,7,5,6,5,8x-4[12:1],,,,8b-6-1b[4:1]/A2f,,,,2-5-3[4:1],,3,,2,,8,,7,,1/6,,1/6,,3,4,,6,5,6,4/7,,2,1,2x-4[12:1],8,1,8,
{64}
2bqq6b[8:3],E3f,,,
{16}
,,,5<8[8:1],,6,,5,,,,1,,2/8,,3/7,,6,5,,3,4,2,8,8,1,1,2pp3>8[8:3]/7-5[12:1],,,,2b/A7f,,,,5xV71b[4:1],,6,,5,,3-7[8:1],,4,,3,,5>2[8:1],,6,,5<8[8:1]/7,,,,3/5-1[8:1],,,,5/6,,,,
7bh[4:1]/8b-6[8:1],,,,,,,,5-1[8:1]/8,,8,,7,,7,,6q3[4:1],,,,3<6[4:1],,,,6,,,,7,,,,1-5[8:3],,1,,8h[2:1],,,,,,,,,,,,4>1[4:1]/7,,6,,5h[2:1],,,,,,,,8,,,,A2/E2/E3,,,,4/6,,5,,3/5,,4,,4/7,,6,,2h[1:1]/5,,,,E4,,,,B6,,,,B2,,,,8<6[4:1],,,,6>4[4:1],,,,4>1[4:1],,,,1<6[4:1],,,,6>2[4:1],,,,2<5[8:3],,,,Chf[2:1],,,,,,,,
4bx-7[8:1],,,,4>6[8:3],,,,5x-8b[8:1],,,,5,,,,1,,,2/4,,,3/5,,4x>1[12:1]/6x<1[12:1],,,,4/6,,,,3b-5b[12:1]/7b>3[4:1],,,,3>7[4:1]/7,,,,6x-2b[8:1],,,,6,,,,5,5,,4h[8:1]/6h[8:1],,,4/6,,3,5,3,5,,1/7,1/7,,2bV46[4:1]/6b-8b[12:1],,,,2/6p2[4:1],,,,1x-5b[8:1],,,,1,,,,7/8,,6,5,,2,8,2,8,4,6,4,3V57[4:1]/7-4b[12:1],,,,3b/7b>3[4:1],,,,4-7b[12:1],,4-1[8:1],,4x,,4x,,5,,6,,7xh[4:3],,,,4,,4,,3,,3h[4:1],,,,,,
8b-4b[8:1]/A2f,,,,2-4[8:1]/8,,3,,2/5-1[8:1],,6,,5/7,,8,,8h[16:3],,,6h[16:3],,,4h[8:1],,1,1,5,5,2,2,6,,3b-5b[8:1]/A7f,,,,3/7-3[8:1],,6,,2-4[8:1]/7,,1,,2/5,,6,,7h[8:1],,5,6h[8:1],,4,5h[4:1],,3,,3,4,1,8,5,6,7b-5b[8:1]/A4f,,,,4-8[8:1]/7,,3,,2-6[8:1]/4,,1,,2/7,,8,,8h[8:1],,2,2,4,4,5,5,
{4}
7v2[12:1],1-5b[12:1]/7,
{64}
1b>8[8:5]*-3-6-8b[8:5]/8b,Cf,,,
{16}
,,,
{4}
,,,
Chf[1:1],B7,B8,B1,B3/B4/B5,,,,
{8}
,8h[8:7],,,,,,,7h[8:9],,,,,,,,,6h[8:7],,,E2,B2,B3,E4,,,A4/A5/D5/E5/Ch[4:15],,,,,,,B3/B4/E4,,,,,,,B1/B2,,,,,,,,D8,,D1,,D2,,,,,
