&title=我的好兄弟-ebimayo.bro.edit
&artist=ebimayo vs 高进 vs 小沈阳
&first=0.62
&des=m桑
&lv_5=14
&des_5=m桑
&inote_5=
(170){4}4/5,4,5/4,5,
5/3,3,5/3,5,
4/6,4,4/6,6,
6/3,3,6/3,6,
5/3,3,5/3,3,
4/6,6,4/6,6,
8/1,8/1,8/1>2>3<4<5<6<7>8[1:1],8b/1b,
,,,,6/1-3[8:1],
1/7,4/8-6[8:1],8/2,
5/2-4[8:1],2/7,3/7-5[8:1],7/1,
6/1-3[8:1],1/8,4/8-6[8:1],8/2,
5/1-3[8:1],1/7,8-6[8:1],8/2-4[8:1],
2/7-5[8:1],7/1-3[8:1],1/8-6[8:1],8/2-4[8:1],
2/7-5[8:1],7/3-1[8:1],3/6-8[8:1],6/2,
{8}2,7,3,6,{16}4b,5,4,5,4-8[8:1],5,4,5,
{1}4,
{8}1-3[8:1],1,8-6[8:1],8,2-4[8:1],2,7-5[8:1],7,
1-4[8:1],1,8-5[8:1],8,2-5[8:1],2,1-6[8:1],1,
2-5[8:1],2,1-7[8:1],1,4-1[8:1],4,7-4[8:1],7,
8-3[8:1],8,7-5[8:1],7,1,1,2/7,3,
{4}5/4h[8:1],4/5h[8:1],5/3h[8:1],4/6h[8:1],
5/4h[8:1],4/5h[8:1],5/3h[8:1],4/6h[8:1],
5/4h[8:1],4/5h[8:1],5/3h[8:1],6h[8:1]/4-1qq5<3[1:1],
,,,,5h[8:1],
5/3h[8:1],4/6h[8:1],5/2h[8:1],
3/7h[8:1],5/3h[8:1],4/6h[8:1],5/2h[8:1],
3/7h[8:1],5/3h[8:1],4/6h[8:1],5/2h[8:1],
3/7h[8:1],5/3h[8:1],4/6h[8:1],5/2h[8:1],
{8}3/7,7,6/3,3,6/4,6,5/4,4,
6/5,6,5/4,4,5/3,5,4/6,4,
{16}4,5,4,5,3,6,3,6,2,7,2,7,1-5[8:1],8,1,8,
{2}1b/Cf,{4}2,1-5[8:1],
{8}1/5-2[8:1],7,5/8-4[8:1],6,8/5-8[8:1],6,5/3-7[8:1],1,
3/8-5[8:1],1,8/4-7[8:1],2,4/1-5[8:1],3,1/4-1[8:1],3,
4/2-6[8:1],3,{4}8q4[8:1]/2-4[8:1],2bp6[8:1]/8b-6[8:1],2b-4[8:1]/8bq4[8:1],
{8}8b/2b,{16},,,,7,6,5/3-7[8:1],2,{8}1,3/8-4[8:1],1,
8/3-6[8:1],2,3/1-5[8:1],3,1/4-1[8:1],3,4/2>5[8:1],3,
{4}2/8<5[8:1],8/1>4[8:1],1/7v4[8:1],{8}7/2-4[8:1],1,
2/6-4[8:1],7,{4}6/2h[8:1],{8}8,4,6,3,
{4}4/3h[8:1],5/6h[8:1],4/3h[8:1],{8}6h[8:1]/5v8[8:1],4,
5/1-5[8:1],3,1/4-1[8:1],3,4/6-2[8:1],7,6/1-4[8:1],8,
1/5-2[8:1],6,5/8-4[8:1],7,8/5-1[8:1],6,{4}5/7-3[8:1],
7-5[8:1]/1-5[8:1],1-3[8:1]/7-3[8:1],7b-5[8:1]/1b-5[8:1],1b-3[8:1]/7b-3[8:1],
7b/1b,{16}4,5,6,7,{4}8/2,{8}2,2-5[8:1],
,2/5,,4,3,7,6,3,
4,6,5,4h[8:1],,4,4,4h[8:1],
{4}5h[1:1],4,4,4,
{16}4,5,4,5,4,5,4,5,4,5,4,5,4,5,4,5,
{4}3>4[2:1],3/7-3[4:1],,,5,
5-8[4:1]*qq5[4:1],{2}5,
{4}1,1-5[4:1],{2}1,
{4}4,4-1-3[4:1]*-7-5[4:1],{2}4,
{4}6,6v4[4:1]*V84[4:1],{2}6,
{4}2,2v5[4:1]/8v5[4:1],{2}8/2,
{4}4,4>8[4:1]*<8[4:1],{2}4,
{4}5/4q1>5[4:3],4,{2}6,
{4}8,8<2[4:3],{2}8,
{4}2<6[2:1],A1,{2}6>1[2:1],
{4}1<4[2:1],A8,{2}4>7[2:1],
{4}7<2[2:1],A6,{2}2<5[2:1],
{4}5>7[2:1],A4,{2}7<1[2:1],
1<2[2:1],2<2[2:1],
{8}A5/2<2[2:1],A3,A1,A7,A5/2<2[2:1],A3,A1,A7,
{16}2/A5,A4,A3,A2,1x,8x,7x,6x,5x,4x,3x,2x,{4}8bx/1bx,
{1}4bxh[2:31]/5bxh[2:31],
,,,,,,,,,,,,,,,{4}1/5h[1:8],
1,1,1,
1,1,1,1,
1,1,1,1,
1,1,1,1,
1,1,1,1,
1,1,1,1,
1,2,3,4,
6,7,8,1,
2-4[8:1],2/4-1[8:1],4/1-5[8:1],1/5-8[8:1],
5/8,8/6,8/6-8[8:1],6/8-5[8:1],
8/5-1[8:1],5/1-4[8:1],1/4-2[8:1],4/2,
1/4,4/1,4/1,5/2-4[8:1],
2/7-5[8:1],7/1-3[8:1],1/8-6[8:1],8/1-5[8:1],
1/8-5[8:1],8/2-5[8:1],2/6-1[8:1],6/4-8[8:1],
{8}4/5,6,7/1,2,{16}3,6,3,6,3,6,3,6,
{1}5b/4b,
3h[4:31],
,4h[4:23],
,5h[2:7],
,6h[4:7],
{4},,,5x,
6/5/3h[4:7]/4h[4:7],7/8,7/8,2/1,
1/2,5/6,6/5,6/5,
3h[4:3],6h[2:1],4h[4:1],5,
{2}6b/5b/4b/3b,{4}4/3,{8}6/5,4/3,
,4h[8:5]/3h[8:5],,,{2}6/5,
6/5/4/3,5/6/4/3,
{8}4/3,6/5,4/3,6/5,{16}4/3,6/5,4/3,6/5,4/3,6/5,4/3,6/5,
{1}4b/3b,
{8}5/1-7[8:1],5,5/1-3[8:1],5,5/1-7[8:1],5,5/1-3[8:1],5,
6/1-7[8:1],6,6/1-3[8:1],6,6/1-7[8:1],6,6/1-3[8:1],6,
5/1-7[8:1],6,5/1-3[8:1],6,5/1-7[8:1],6,5/1-3<4[8:1],6,
{4}5xh[8:1]/1-7<6[8:1],5h[8:1]/1>4[8:1],5h[8:1]/1-5[8:1],{8}6/1-3[8:1],7,
8/1-5[8:1],8,8/1-3[8:1],8,8/1-5[8:1],8,8/1-3[8:1],8,
8/1-5[8:1],7,8/1-3[8:1],7,8/1-5[8:1],7,8/1-3[8:1],7,
8/1b-5[8:1],8,8/1b-3[8:1],8,8/1b-5[8:1],8,8/1b-3[8:1],8,
8/1b-7[8:1],7,6/1-3[8:1],5,5/1-7[8:1],5,5/1-3[8:1],5,
4/1-7<6[8:1],4,4/1-3[8:1],4,4/1-7<6[8:1],4,4/1-3[8:1],4,
5/1-7[8:1],5,5/1-3[8:1],5,5/1-7[8:1],5,5/1-3<4[8:1],5,
6/1-7[8:1],6,6/1-3<4[8:1],6,6/1-7[8:1],6,6/1-3[8:1],6,
5/1-7[8:1],5,5/1-3[8:1],5,5/1-7[8:1],5,5/1-3[8:1],5,
6/1b-7[8:1],6,6/1b-3[8:1],6,6/1b-7[8:1],6,6/1b-3[8:1],6,
5/1b-7[8:1],5,5/1b-3[8:1],5,5/1b-7[8:1],5,{4}5/1b,
{16}1,5,1,5,1,5,1,5,1,5,1,5,1,5,1,5,
{1}1b,
{8}4/8-2[8:1],4,4/8-6[8:1],4,4/8-2[8:1],4,4/8-6[8:1],4,
3/8-2[8:1],3,3/8-6[8:1],3,3/8-2[8:1],3,3/8-6[8:1],3,
4/8-2[8:1],3,4/8-6[8:1],3,4/8-2[8:1],3,4/8-6>5[8:1],3,
{4}4bxh[8:1]/8b-2>3[8:1],4bh[8:1]/8b<5[8:1],4bh[8:1]/8b-4[8:1],{8}3/8-6[8:1],2,
1/8-4[8:1],1,1/8-6[8:1],1,1/8-4[8:1],1,1/8-6[8:1],1,
1/8b-4[8:1],2,1/8b-6[8:1],2,1/8b-4[8:1],2,1/8b-6[8:1],2,
1/8b-4[8:1],1,1/8-6[8:1],1,1/8-4[8:1],1,1/8-6[8:1],1,
1/8-2[8:1],2,3/8-6[8:1],4,4/8b-2[8:1],4,4/8b-6[8:1],4,
5/8-2>3[8:1],5,5/8-6[8:1],5,5/8-2>3[8:1],5,5/8-6[8:1],5,
4/8-2[8:1],4,4/8-6[8:1],4,4/8-2[8:1],4,4/8-6>5[8:1],4,
3/8-2[8:1],3,3/8-6>5[8:1],3,3/8-2[8:1],3,3/8-6[8:1],3,
4/8-2[8:1],4,4/8-6[8:1],4,4/8-2[8:1],4,4/8-6[8:1],4,
4/8-2[8:1],4,4/8-6[8:1],4,4/8-2[8:1],4,4/8-6[8:1],4,
3b/8b-2[8:1],3,3b/8b-6[8:1],3,3b/8b-2[8:1],3,{4}8b/3b,
{16}8,4,8,4,8,4,8,4,8,4,8,4,8,4,8,4,
{2}8,{4}2,1-5[8:1],
{8}1/5-2[8:1],7,5/8-4[8:1],6,8/5-8[8:1],6,5/3-7[8:1],1,
3/8-5[8:1],1,8/4-7[8:1],2,4/1-5[8:1],3,1/4-1[8:1],3,
4/2-6[8:1],3,{4}8q4[8:1]/2-4[8:1],2bp6[8:1]/8b-6[8:1],2b-4[8:1]/8bq4[8:1],
{8}8b/2b,{16},,,,7,6,5/3-7[8:1],2,{8}1,3/8-4[8:1],1,
8/3-6[8:1],2,3/1-5[8:1],3,1/4-1[8:1],3,4/2>5[8:1],3,
{4}2/8<5[8:1],8/1>4[8:1],1/7v4[8:1],{8}7/2-4[8:1],1,
2/6-4[8:1],7,{4}6/2h[8:1],{8}8,4,6,3,
{4}4/3h[8:1],5/6h[8:1],4/3h[8:1],{8}6h[8:1]/5v8[8:1],4,
5/1-5[8:1],3,1/4-1[8:1],3,4/6-2[8:1],7,6/1-4[8:1],8,
1/5-2[8:1],6,5/8-4[8:1],7,8/5-1[8:1],6,{4}5/7-3[8:1],
7-5[8:1]/1-5[8:1],1-3[8:1]/7-3[8:1],7-5[8:1]/1-5[8:1],1-3[8:1]/7-3[8:1],
7/1,{16}4,5,6,7,{4}8/2,{8}2,2-5[8:1],
,2/5,,4,3,7,6,3,
4,6,5,4h[8:1],,4,4,4,
{16}3,7,2,5,4,7,2,5,4,7,2,5,4,7,2,5,
4,6,3,5,4,6,3,5,4,6,3,5,4,6,3,5,
{4}6/2>4[4:1],6/2,6,6,
6/4-1[4:1],6/4,6,6,
6/8>3[4:1],6/8,6,6,
4/8<6[4:1],4/8,4,4,
4/5-8[4:1],4/5,4,4,
4/7-5[4:1],4/7,4,4,
4/5,5/4,5/4,5/4,
{1}5b/4b,
{4}6/5,4/3,6/5,4/3,
6/5,4/3,6/5,4/3,
5/7,4/2,5/7,4/2,
5/7,4/2,5/7,5/3,
{8}5/4,3,5/4,3,5/4,3,5/4,3,
4/5,6,4/5,6,4/5,6,4/5,6,
{16}4,5,4,5,4,5,4,5,4,5,4,5,4,5,4,5,
4,5,4,5,4,5,4,5,4,5,4,5,4bx,5bx,4bx,5bx,
E
