&title=Warlords of Atlantis
&artist=Sakuzyo
&first=0
&des=KuSA
&wholebpm=140
&lv_5=13
&inote_5=(140)
{1},
{16}
3,4,,4,3,5,4,6,5h[16:13],,,,,,4,4,,4,,4,,4,5,6-1[8:1],,,,6>3[1:1]/5,,,5,7,,,,,7,,,,
8,,,,8,,,,1,,,,1,,,,2,,,,2,,,,
6,5,,5,6,4,5,3,4h[16:13],,,,,,5,5,,5,,5,,5,4,3-8[8:1],,,,3/4-7[8:1],,,1,4,1,,
2,,3,,6,5,7,4,7,5,7,6,7,8,6/1,,7/2,,{24}8/3,2,1,8,7,6,{16}1,1,7,7,5,5,6,4,
8b,,6,5,6,,45,,3,4,3,5,4,,6,7,3/8,,2,1,2,3,4,8/5,,7,1/8,,3,1,2,8,1/7,,
6,4,6,5,7,7,5,6,3,5,3,4,2,2,4,3,6,4,6,5,8,8,7/2,,6,5/7,,3,2/4,,3/6,,
5,4,6,4,7,6,7/5,,2,4,1,3,1,3,2/4,,5,6,7/3,,3,5,4,6,7/5,,6/8,,1/7,,
2,8,1,2,3/7,,
6,4,5,5,4,6,5,5,6,3,{24}5,4,6,{16}5,5,7,,2,1,,3,5,4,{24}6,7,8,1,2,3,{16}1b/4,,
3,4,3,,4/5,,6,5,6,4,5,,3,2,1/6,,7,8,7,6,5,4/1,,2,1/8,,6,8,7,1,8/2,3/7,4/6,,2/8,,
3,3,6,5,6,7,5,6,5,4,{24}7,6,5,4,3,2,{16}7/1,,8,8,5,6,5,7,4,4,8,3,1/2,,
5,5,3,6,5,7,4,5,3,4,2,2,6,1,7/8,,4,4,6,5,7,4,5,3,6,4,5,3,7,2,18,,
5,4,6,4,5,3,5,6,4,5,4,3,5,4,{8}4>1[8:3]/5<8[8:3],,,,,,,{16}2/7,3/6,
4b/5b,,5,,3/4,,6,5,4,3,4,,3/5,,4/6,,5,3,4,,4/6,,5,3,6,4,5,4,6,5,4,6,
{32}4,3,2,1,{16}8,5,5,,{24}3,4,3,4,,,4/5,,,6,5,6,5,,,5/4,,3/5,,5/4,,{16}4/6,,
3,5,3/4,,4/5,,{24}6,5,4,3,4,5,{16}6h[4:1],,,4,4,,5,5,4,3,5,6,4,4,4,4,
3/5,6,5,6/4,3,4,5/3,6,3,3,5,4,6,6,4,5,{24}3,4,3,6,5,6,{16}4,,
3,5,6/4,,3/5,,6,5,3,4,6,6,5,5,4,,
{24}
3,4,3,5,3-6[8:1],4,{16}3,,,,,,1/8,,7,5,6/4,,2,4,3/5,,7/4,,1,1,1,1,
{32}7,6,5,4,3,2,1,8,{16}7/4,,6,6,5,7,4,4,{24}6,5,6,{16}4,4,
{32}5,6,7,8,1,,{16}3,3,,{24}5,4,6,5,,,7/4,,,4,5,3,{16}4,,1,3,2,2,6,4,5,5,
4/6,7,18,2,3/5,6,7/4,8,1/2,,3,5,2,6,8,5,2,7,{32}1,2,3,4,6/5,,,,{16}1,,7/8,6,
1,1,5,4,2,2,{32}4,5,6,7,2,3,4,5,8,7,6,5,{16}2,,1/8,,6,6,5,7,1,1,2,2,5,3,4,4,6,5,
{32}8,,6,,4,,2,,8,,6,,4,,2,,8,7,6,5,4,3,2,1,8,7,6,5,4,3,2,1,
{16}8b-3[8:1],,2,,8<5[8:1]/6,,7,,8/4>1[8:1],,2,,4-7[8:1]/5,,6,,
8<5[8:1],,1,1,2,,3-8[8:1],,4,4,5,,6<1[8:1],6,2-5[8:1],5,4,,2,,
7<4[8:1],7,3-8[8:1],8,1,,3,,5-8[8:1],5,2-6[8:1],4,3,,2,,
7,7,1,8,2,2,5,4,6,6,{24}2,3,4,{16}8/5,,7,7-3[8:1],3,8,2,7,1,,
2,2-6[8:1],6,3,5,2,4,,5,5-1[8:1],1,7,2,5,3,,
4,4,1,3,7,7,6,6,5,4,7,7,2,2,4,3,5,5,6,7,4,4,2,3,1,1,5,5,
6,4,7,8,1,2,3b,,,,2-6[8:1],4,1,5,2,,8,8,5,6,5h[8:1],,8,6,8,,
7-3[8:1],5,8,4,7,,1,1,4,3,4,5,4,3,2/4,,8<5[8:1],3,1,2,8,,1,1,
4,3,4h[8:1],,1,3,1,,2>5[8:1],8,1,7,2,,7,7,5-2[8:1]/6-1[8:1],,3/8,,5/6,,,,
3-6[8:1],7,1,5,3,,8,8,4h[8:1],7,7,,5h[8:1],2,2,,7-2[8:1],1,5,3,7,,4,4,
7,7,5,6,3,3,5,4,3/6,5,4,5,3,5,4,5/3,6,4,5,4,3,5,4/6,3,5,4,6,2,5,4,7,3,6,2,5,1,
{24}4,5/1,6/2,7/3,8/4,1/5,2/6,
