&title=アマツキツネ (10th Anniversary ver.)
&artist=まらしぃ×堀江晶太(kemu)×じん
&first=0
&des=MYOU
&lv_5=13+
&inote_5=(191)
{1},
{4},,3,4,5,4,5,6>3[4:1],2,,6,5,4,5,4,3<2[2:1],
{1}7-3[1:2],,,1b>4[4:1]*<6[4:1]/Cf,8b<5[4:1]*>3[4:1]/Cf,1b>4qq4[2:1]*<6pp6[2:1]/Cf,
{8}45,45,36,27,{24}8x/1x,2x,3x,4x,5x,6x,7x,8x,1x,2x,3x,4x,
{8}5x/7x-4[8:1],,37,,{16}2-5[8:1],4,2,4,{8}2,6,
7-4[8:1],,37,,2-5[8:1],4,25,6,
{8}7,1/8<5[8:1],,1x>4[8:1]/8x,,1x<6[8:1]/4x,,1x/5x,
{16},,3,4,3,4,3,5,4,5,4,5,3,4,3,4,
{8}2-5[8:1],,26,,{16}7-4[8:1],5,7,5,7,,3,,
2,5,2,5,3,6,3,6,4,7,4,7,5,8,5,8,
{16}5x,4,3,2,8x,7,6,5,3x,4,5,6,7,8,1,2,
{8}3h[2:3]/5h[4:1],,,5-1<4[2:1],,,,,
,,,,5,35,,4,
{4}46,2,34,7,
56,78,12,34,
{8}4h[4:1]/6h[2:3],,,4v1s5[2:1],,,,,
,,,,4,46,,5,
{4}53,8,75,1,
43,21,87,65,
{8}34,,1pp1[8:3]*qq1[7:3]/5,5/1,,,,,
{16},,18,,2b/6b,,,,5,4,5,4,5,4,5,4,
{8}5<8[8:1],,2,3x,4x>1[8:1],8x,7x,6x,
5x<8[8:1],,C,,4,,3/5,,
{8}4h[96:1]/7h[96:1],,1,2,35,6,17,8<5[4:1],
,5p8[4:1],,8<5[4:1],,5,,1,
{4}1V35[4:1]/7,5V71[4:1],1V35[4:1],5V71-3b[4:1],
{2}Cf,{12}6,5,6,3,4,3,
{4}5xh[16:3]/2x-4-1-3-5-2b[8:27],6xh[16:3],7xh[16:3],8xh[16:3],
5xh[16:3],6xh[16:3],7xh[16:3],8xh[16:3],
{4}5xh[16:3],6xh[16:3],7xh[16:3],8xh[16:3],
7xh[16:3],6xh[16:3],5xh[16:3],{16}4xh[16:3],,,A1,
{16}5xh[16:3],,,A2,6xh[16:3],,,A3,7xh[16:3],,,A4,8xh[16:3],,,A1,
5xh[16:3],,,A2,6xh[16:3],,,A3,7xh[16:3],,,A4,8x-4[8:1],,,,
{8}8b/2b-6[8:1],,2b/7b,8b<5[8:1]*>3[8:1],,8b-4[8:1],,8b,
,2b/7b,1b>6b[4:1]/8b,,Cf,,7-3[8:1],,
{4}8-4[8:1],1-5[8:1],2-6[8:1],8<3b[4:1],
Cf,2-6[8:1],1-5[8:1],8-4[8:1],
{4}7-3[8:1],5-1[8:1],4-8[8:1],2>7b[4:1],
Cf,,1-5[8:1]/8,1/6>1[4:1],
{4}3h[2:1],,8-4[8:1],8/3<8[4:1],
6h[2:1],,8-4[8:1],8<3[4:1]/1,
{4}6h[2:1],,1-4[8:1]*-6[8:1],1x,
{8}3x/5x,2,46,7,26,{16}1,8,1,8,{24}2x,3x,4x,
{4}7xb-3[8:1],17,2-6[8:1],2>5qq3[16:5]/8<5pp7[16:5],
,,5-1[8:1],15,
{4}8/2-5[8:1],2/6-1[8:1],6/3-8[8:1],3/8-5v6[4:1]*-3v2[4:1],
,,2-4[8:1]/5-1[8:1],25,
{4}8x-5[8:1]/5x-8[8:1],5x/8x,4x-1[8:1]/1x-4[8:1],1x/4xq5<4b[8:5],
8xb,,{16}5,6,7,8,1,2,3,4,
{1}B1f/5xw1[4:7],,
{16},,,,,,E3,B3,B4,,,,C,,E7,B6,
B5,,E4,,E3,,E2,,C,,,,,,,,
{16}A3,,A7,,A1,,A5,B5,C,,E3,,E1,,E7,,
Ch[1:1],,,,,,E5,E6,E7,,,,A7,,A6,,
{16}A5,,,,,,A3/E3/A2,,,,A7/A6/E7,,,,E2/E8/B2/B7/Cf/B5/B4/B6/B3/E5,,
{8},1x,8x,7x,46,46,35,35,
{8}2>8[16:3]/4,,6h[4:1],,{24}B1,B2,B3,B4,B5,B6,{8}8x,8x,
7<1[16:3]/5,,3h[4:1],,{24}B8,B7,B6,B5,B4,B3,{8}1x,1x,
{8}2>8[16:3]/4,,6h[4:1],,{24}B1,B2,B3,B4,B5,B6,E8,E1,E2,E3,E4,E5,
{8}8xbw4b[8:1],,8xb,,24,3,46,7,
{16}1b/8b,,2,4,2,,1b/8b,,7,5,7,,1b/8b,,2,3,
2,,1b/8b,,7,6,7,,8b/1hb[16:3],,,3hb[16:3],,,5hb[16:3],,
{16}8,7,6,5,1,2,3,4,8,7,6,5,4,3,2,1,
5,6,7,8,{24}4xb,3x,2x,1x,8x,7x,{2}6x/E5f,
{4}7/5>1[2:1],7,6,5,
2/4<8[2:1],2,3,4,
{4}6/5>8[2:1],6,B7,B5,
3/4<1[2:1],3,B2,B4,
{24}8x,,,B1,C,B5,7x,,,E3,B3,B4,6x,,,B1,C,B5,7x,,,E3,B3,B4,
8x,,,B1,C,B5,7x,,,E3,B3,B4,6x,,,B1,C,B5,7x,,,E3,B3,B4,
{8}8b<5[8:1],,8b/2b,1b>4[8:1],,1b/7b-3[8:1],,7b/2b-6[8:1],
,2b/8b,8b,{32}A5,D5,A4,D4,{2}A3,
{1}7-4[2:1]/3,8-4[2:1]/3,7-3[2:1]/4,8-3[2:1]/2,1pp1[2:1]/7,8qq8[2:1]/3,
{2}1h[8:3]/E7f/B6/B7,8h[8:3]/E3f/B3/B2,
{8}2x/6x,1,37,8,{16}3,6,4,5,2,7,3,6,
{4}1b-5[8:1],71,8-4[8:1],8<5pp7[4:1]/2>5qq3[4:1],
,,4-1[8:1]/5-8[8:1],5/4,
{4}6/2-6[8:1],2/8<5[8:1],8/4-8[8:1],4/8-5v6[4:1]*-3v2[4:1],
,,1-4[8:1]/5-8[8:1],15,
{4}8x<5[8:1]/5x<8[8:1],5x/8x,4x>1[8:1]/1x>4[8:1],4x/1x-3-8-4-7-5b[4:3],
{1}A1f/D1/D2,
{16}37,,6,5,6,,1>4[8:1]/7,,,,1/8<5[8:1],,,,8>3[8:1]/5,,
,,48,,,,26,,1,8,2,7,4,5,3,6,
{1}1b>8b[2:1],3bV16-4b[2:1]/6bV83-5b[2:1],
{8}57,4,3,24,5,6,57,8,
18,27,36,45,4/5w1[8:1],,,,
{4}3/7-4[8:1],17,2-5[8:1],82,
7-4[8:1],17,3h[4:1]/5,8,
{4}6/2-5[8:1],28,7-4[8:1],71,
2-5[8:1],82,4/6h[4:1],1,
{4}3/7-3[8:1],17,2-6[8:1],28,
7-3[8:1],7/1>4[8:1],1<6[8:1]/8,13,
{16}1b/7b,,3,4,3,,2/8<5[8:1],,,,8/1>4[8:1],,,,4/1<6[8:1],,
,,15,,,,37,,2,6,2,6,1-5[8:1],7,1,7,
{24}1b>4[4:1]*<6[4:1],Cf,,,,,{4},,,8b<5pp5[2:1]*>3qq3[2:1]/Cf,,,,
{2}1hb[2:1]/Cf,{24}4x,5,6,7,8,1,2,3,4,5,6,7,
{8}1b/8b,3b/6b,4b/5b,2b/7b,,,,,
