&title=ᐸᐸᐸᐸᐸᐸ
&artist=x0o0x_
&first=0.11
&des=桂花君
&clock_count=4
&lv_5=12+
&inote_5=(97)
{1},
{1},
{1},
{1},
{4}6h[1:1],,5,4,
{4}3h[1:1],,4,5,
{4}6h[1:1],,1,2,
{8}3h[1:1],,,,8,7,7,6,
{8}5-8[4:1],,,3,4-1[4:1],4,6,7,
{8}8<5[4:1],8,3,2,1>4[4:1],,5,6,
{8}7p4[8:3],,,1,1,,2,3,
{8}2<7[4:1],2,7>2[4:1],,5h[4:1],,,2,
{8}2s6[4:1],,,7,7z3[4:1],,,2,
{8}1>4[4:1],7,7,,8<5[4:1],2,2,1,
{8}8-4[2:1],,,5,6,7,8,1,
{8}2h[8:1],3h[8:1],4h[8:1],5h[8:1],6h[4:1],,,7,
{8}8<4[4:1],,2,1,8>4[4:1],,6,7,
{8}8V64[4:1],8,1,,8V24[4:1],,,,
{8}1<5[4:1],,3,2,1>5[4:1],,,8,
{8}1-5[4:1],1,2,,3,3,4,5,
{8}6,,,6,5,,,3,
{8}4,,,,,,,2,
{96}3,4,,,,,,,,,,,,,,,,,,,,,,,,,,,,,,,,,,,{8}7,5,,,3,
{96}5,4,,,,,,,,,,,,,,,,,,,,,,,,,,,,,,,,,,,,,,,,,,,,,,,3,6,,,,,,,,,,,,,,,,,,,,,,,,,,,,,,,,,,,2,,,,,,,,,,,,
{8}1>1[2:1],,7,8,1V35[4:1],,6,7,
{8}8<4[4:1],,4V61[4:1],3,2q6[16:3],,2,7,
{8}8V63[4:1],,3V51[4:1],2,1<5[4:1],,2,3,
{8}4-2[8:1],4-6[8:1],4z8[4:1],,,,,6,
{8}5<1[4:1],,1V74[4:1],2h[8:3],,,,1,
{8}1>5[8:2],,5V38[4:1],6,6,7,7,6,
{8}5<1[4:1],,1>5[4:1],,5<1[4:1],,1qq6[2:1],2,
{8}3,3,4,4,3,2,6,5,
{8}4<4[2:1],,2,3,4V68[4:1],,1,2,
{8}3V17[4:1],,7>3[4:1],6,5-8[16:3],,5,4,
{8}3V15[4:1],,5V37[4:1],6,7>3[4:1],,6,5,
{8}5-7[8:1],5-3[8:1],5z1[4:1],,,,,3,
{8}4>8[4:1],,8V62[4:1],7h[8:3],,,,6,
{8}5<1[4:1],,1V37[4:1],2,3,4,4,3,
{8}1>5[4:1],,5<1[4:1],,1>5[4:1],,5-1[4:3],6,
{8}7h[96:1],6h[96:1],5h[96:1],4h[96:1],3h[96:1],,5h[96:1],,
{96}6h[4:3],4h[4:3],,,,,,,,,,,,,,,,,,,,,,,,,,,,,,,,,,,,,,,,,,,,,,,,,,,,,,,,,,,,,,,,,,,,,,,,,,,,,,,,,,,,,,,,,,,,,,,
{96}2h[4:3],4h[4:3],,,,,,,,,,,,,,,,,,,,,,,,,,,,,,,,,,,,,,,,,,,,,,,,,,,,,,,,,,,,,,,,,,,,,,,,,,,,,,,,,,,,,,,,,,,,,,,
{96}6h[4:3],5h[4:3],,,,,,,,,,,,,,,,,,,,,,,,,,,,,,,,,,,,,,,,,,,,,,,,,,,,,,,,,,,,,,,,,,,,,,,,,,,,,,,,,,,,,,,,,,,,,,,
{96}3h[4:3],4h[4:3],,,,,,,,,,,,,,,,,,,,,,,,,,,,,,,,,,,,,,,,,,,,,,,,,,,,,,,,,,,,,,,,,,,,,,,,,,,,,,,,,,,,,,,,,,,,,,,
{96}7h[4:3],8h[4:3],,,,,,,,,,,,,,,,,,,,,,,,,,,,,,,,,,,,,,,,,,,,,,,,,,,,,,,,,,,,,,,,,,,,,,,,,,,,,,,,,,,,,,,,,,,,,,,
{96}2h[4:3],1h[4:3],,,,,,,,,,,,,,,,,,,,,,,,,,,,,,,,,,,,,,,,,,,,,,,,,,,,,,,,,,,,,,,,,,,,,,,,,,,,,,,,,,,,,,,,,,,,,,,
{96}4h[4:3],5h[4:3],,,,,,,,,,,,,,,,,,,,,,,,,,,,,,,,,,,,,,,,,,,,,,,,,,,,,,,,,,,,,,,,,,,,,,,,,,,,,,,,,,,3,,,,,,,,,,,,
{16}5,5,4,,{96}6,3,,,,,,,,,,,{32}8,1,8,1,8,,8,,1,,1,,{96}7h[8:1],2h[8:1],,,,,,,,,,,,,,,,,,,,,,,
{24}1b>4[12:1],,,8,,,7,,,6,,7,7-3[12:1],,8,1,,,2,,,1,,,
{24}2>5[12:1],,6,4,,,8,,,7,,8,1-5[12:1],,1,8,,,7,,,6,,,
{8}5-8[12:1],6,2-6[12:1],3,7-1[12:1],8,2-5[12:1],3,
{24}2-8[12:1],,6,6,,,2-5[12:1],,4,4,,,2-8[12:1],,6,6,,,2,,4,4,,,
{24}5<8[12:1],,5,3,,,5,,2,,,7,1v4[12:1],,2,8,,,1,,,6,,,
{24}4>1[12:1],,4,6,,,4,,7,,,2,8v5[12:1],,1,7,,,8,,2,2,,1>4[12:1],
{24}1<6[148:8],,2,8,,,,,5,5,,,8-4[12:1],,7,1,,,8,,2,2,,3,
{24}5,,6,4,,3,5,,7,4,,2,5,,6,1,,3,8,,7,1,,4,
{24}7<4[12:1],,,1,,,2,,,3,,2,2q6[12:1],,1,8,,,7,,,8,,,
{24}8<5[12:1],,2,4,,,1,,,2,,1,7-3[12:1],,8,2,,,7,,,4,,,
{24}5-1[12:1],,,4,,,6,,,7,,,8b,4b,6b,2b,,,7-4[12:1],,,2,,,
{24}7>1[12:1],,3,3,,,7-4[12:1],,5,5,,,7>1[12:1],,3,3,,,7,,5,5,,,
{24}4>1[12:1],,4,6,,,4,,7,,,8,8p3[12:1],,1,2,,,8,,,1,,,
{24}5<8[12:1],,5,3,,,5,,2,,,1,1q6[12:1],,8,7,,,1,,7,7,,8<5[12:1],
{24}8>3[148:8],,7,1,,,,,4,4,,,1-5[12:1],,2,8,,,1,,7,7,,6,
{24}5,,3,4,,7,5,,2,4,,8,6,,1,3,,6,5,,3,4,,7<1[32:89],
{32}8h[32:16],,,,,,,,,,,,,,,,,8h[8:1],,,,,8h[32:1],,8h[32:1],,8h[32:5],,,,,,
{32}7h[32:13],,,,,,,,,,,,,,7h[32:1],,7h[32:1],,7h[32:1],,7h[32:3],,,,6,,,,5,,5h[32:11],,
{32},,,,,,,,,,5h[32:1],,5h[32:1],,5h[32:9],,,,,,,,,,5h[32:1],,5h[32:1],,5,,,,
{1}8b,E
