&title=燦々
&artist=Afterglow
&first=-0.03
&des=lA Pienture
&lv_5=13+
&inote_5=(196){4},,,,,,,,6xV84[4:3],
5x,4x,3x,
2xh[8:13],1x<3[1:1],,,,,,B8/B1/E1/B5/B4/E5,
3x/7x<5[8:1],4,6/2x<8[8:1],5,
{8}4,4h[4:1],,3V52[16:3],,5,{4}6,
6x/2x-4[8:1],5,2x/7-1[8:1],4,
{8}5,5h[4:1],,6V48[4:1],,4,3,2,
{4}1x/7x<5[8:1],3,8x/2x>4[8:1],6,
{8}7,7h[4:1],,4,{4}3V14[16:3],5,
7<5[8:1],3,8/2>4[8:1],6,
{8}7,7h[4:1],,4,{2}3-7[8:1]/5-1[8:1],
{8}2,3,{4}4h[4:1],{8}7,6,{4}5h[4:1],
{8}3,4,2,5,{4}1>4[8:1],B5/E5/B4,
{8}7,6,{4}5h[4:1],{8}1,2,{4}3h[4:1],
6>3[8:1],2,{2}1-5[8:1]/8-4[8:1],
{8}3,2,{4}1h[4:1],{8}6,7,{4}8h[4:1],
{8}1,2,8,3,{4}7<4[8:1],2,
1>4[8:1],5,6-1[8:1],{8}3,2-6[8:1],
,2,8,7,{2}4-8[8:1]/5-1[8:1],
{8}2,4,{4}3h[4:1],{8}7,5,{4}6h[4:1],
{8}3,4,2,5,{4}1q5[8:1],B6/E6/B5,
{8}7,5,{4}6h[4:1],{8}2,4,{4}3h[4:1],
6>3[8:1],{8}1,1,{2}2-6[8:1]/8-4[8:1],
{8}7x,5,{4}4/6h[4:1],{8}2,4,{4}5/3h[4:1],
{8}6-4[8:1],6,2v1[8:1],2,,,{4}8x>3[8:1]/5x<8[8:1],
,1x<6[8:1]/4x>1[8:1],{8},,2,2,
{4}4h[4:1],6<1[8:1],5<3[4:1],4,
5-2[8:1],6,7-4[8:1],{8}1,1-5[8:1],
,5/1>4[8:1],,6,{4}6h[4:1],5,
5>2[8:1],6,7<4[8:1],{8}8,8-4[8:1],
,4/8>3[8:1],,5,B6/E6/B5,B4/E4/B3,E7/A7/E8,E2/A2/E3,
{4}8x,7x/1x-5[8:1],{2}6-1[8:1],
{4}2,3/8-4[8:1],{2}3-8[8:1],
{4}5h[4:1],8q4[8:1],5<8[8:1],{8}5,1>5[4:1],
,5<1[4:1],,1>5[4:1],,,,8,
7h[8:3],,,5,4h[8:3],,,2,
1h[8:3],,,2,8/3h[8:3],,,8,
{4}7>3b[4:1],3<7b[4:1],7>3b[4:1],2,
{2}4w8[8:1],{8}2x/7x,3/6x,{4}4/5x,
{2}6h[4:1]/5x>2[8:1],3h[4:1]/4x<7[8:1],
{4}2/8x,3,4,5,
6<3>6[4:5],5x,4x,3x,
4x,5x,{2}B6/B5/Ch[4:1],
{4}7b/1x-5[8:1],1/7-3[8:1],7/1V35[8:1],1/7xh[4:1],
{8}4x,3,2/6,1/5,{2}4<7[8:1]/8>3[8:1],
{8}2x,1,6x,5,{4}2x>6[4:1],6x<2[4:1],
2,4,2xv5[8:1]/6xv1[8:1],2/6,
8-4[8:1],8/2-6[8:1],2/8V64[8:1],8/1xh[4:1],
{8}5x,6,7/3,8/4,{2}5x-2[8:1]/1x-6[8:1],
{8}1x,1,6x,6,{4}7-4<6[4:1],{8}7/3,2,
{4}1-5[8:1],1>4[8:1]/5<8[8:1],1x,3-6[8:1],
3/7-2[8:1],7/3-6[8:1],3/8xh[4:1],1x,
{8}2/6-3[8:1],3,6/1-5[8:1],2,{4}1/8w4[8:1],8x,
{8}2,3,5,6,{4}7/4>8[4:1],8<4[4:1],
6,1,2-5[8:1]/8-5[8:1],8x/2x,
6V85[4:1],5xqq5[4:1],3x,2x,
{8}1,2/8x,3x,6x,{4}3v1[8:1]/7v5[8:1],3/7,
2x-5[8:1],{8}5x,6,{4}7-3[8:1],{8}2x,1,
{4}8<7-5>4>3-1b[2:1],4b/A8f,,,4h[4:1],
{8}1,2,{4}3<6[8:1],7,
7<4[8:1],3,{2}4x-8[8:1]/2-5[8:1],
{8}6x,8,5x,7,{4}4>1[8:1],5,
{8}8,4x,7,3x,{4}6<1[8:1],4,
5h[4:1],{8}8,7,{4}6>3[8:1],2,
2>5[8:1],6,5x-1[8:1]/7-4[8:1],7/5,
2-6[8:1],2>5[8:1],2<7[8:1],2/6,
6-1[8:1],6/4>6[4:1],{2}4,
{8}3,4,2,5,1,6,2,7<4[8:1],
,7/3>8[8:1],,3/7h[4:1],,6,5,4/6,
{16}E6,E7,{8}E8,{16}E4,E3,{8}E2,{16}A7,A6,A5,A4,{8}1x,2/8,
3xh[8:1],7,4xh[8:1],6,{2}5x-2[8:1]*-8[8:1],
{8}1,7,2,6,{4}3-7[8:1],4,
5-1[8:1],3,{2}2-6[8:1]/8-4[8:1],
{8}8,4h[8:1],6h[8:1],5h[8:1],7h[8:1],1h[8:1],5,2,
{4}4/3-8[8:1],5w1[8:1],,3>6<3[4:7],
{8},,5x,5x,,,{4}5x,
{8},,5x,5x,,,{4}5x,
4/6h[4:1],{8}5,5,,,{4}4/6,
5/3h[4:1],{8}4,4x,,,{4}2x/6<3>6[4:7],
{8},,4x,4x,,,{4}4x,
{8},,4x,4x,,,{4}4x,
5-2-4-8[4:3],5/6,{8},6,{4}6,
7-3b[2:1],B5,{2}B1,
{4}7bx/1-5b[8:1],1bx/6-2b[8:1],6bx/3-8b[8:1],{8}3bx,7,
6,1/5,2,3/7,{4}4v1b[8:1]/8v5b[8:1],Cf,
{8}2x,7,3x,8,{4}4>1b[4:1],1<6b[4:1],
6>3b[4:1],2,8<5b[8:1]*>3b[8:1],8bx,
2bx/8-4b[8:1],8bx/3-7b[8:1],3bx/6-1b[8:1],{8}6bx,2,
3,8/4,7,6/2,{4}5v8b[8:1]/1v4b[8:1],Cf,
{8}6x,6,1x,1,{4}5<8b[4:1],8>3b[4:1],
3<6b[4:1],7,1p4b[8:1]*q6b[8:1],1bx,
7x>8-5qq5b[8:5],7bx,4bx,2bx,
{8}1,2/8,7,3,{4}4-8b[8:1]/5-1b[8:1],Cf,
{8}2x,3,6x,5,{4}4<7b[4:1],7>2b[4:1],
2>5b[4:1],5,{2}6x-3b[8:1]*>3b[8:1],
{4}1-5[8:1],1bx/4-7[8:1],4bx/2-6[8:1],2bx/8-4[8:1],
{8}8bx/4,2,8,7/1,{4}2-7-1[8:1]/6-3-5[8:1],2bx/6bx,
{8}2x,2,5x,5,{16}3,4,3,5,2,5,1,6,
{4}1-4b[8:1]*-3[8:1],1bx-7[8:1]*-6b[8:1],1bx,Cf/B8/E1/B1/B5/E5/B4,
E
