&title=Undo
&artist=宮守文学
&first=0
&des=全世界に照覧 私らしい!
&lv_5=13+
&inote_5=(138)
{1},,{4},,1?s5[8:6],,,,,,
{4}3/E6/A5/D6,7/E4/B4/B3,{12}1x^6[8:1]b/8x^3[8:1]b,1x/8x,,,,,
{8}4bx-7[8:1]/5bx,3,{24}24,,,,,1x,8x,,,56,,1x,8x,,,56,,,
{8}4-8[8:1]/7-4[8:1],36,{24}47,,,,,1x,5x,,,34,,1x,5x,,,34,,,
{8}6-4[8:1],7,5,3,2-8[8:1],1,7,5,
{16}3,4,1,8,5,6,,,{8}3-6[8:1]/7-2[8:1],26,D7/A7/E7/D3/A3/E3,,
{8}4x-8[8:1]/8x,3,{24}24,,,,,1x,7x,,,35,,1x,7x,,,35,,,
{8}4-8[8:1]/2-5[8:1],15,{24}42,,,,,3x,7x,,,45,,3x,7x,,,45,,,
{16}26,,7,1,8,3,4,2,
{16}7,5,6,4,7,,35,,
{16}8b/1b,,26,,5/4,37,,2bv3[8:1]b/6bv7[8:1]b,,,,,,,,,
{8}6h[8:1]/5-3[8:1],,6h[8:1],,7h[8:1]/2-6[8:1],,7h[8:1],,
{8}58,6,14,2,3-5[8:1]/6-2[8:1],,,,
{16}1^6[8:1],,4,8h[16:3],,,,,5^2[8:1]b,,8,4h[16:3],A5/E6,,,,
{8}15,48,37,26,1^4[8:1]/5^8[8:1],15,,,
{8}4-2[8:1]b/5-1[8:1]b,,4/5,,4-2[8:1]b/5-1[8:1]b,,45,,
{8}8^3[8:1]b/7q4[8:1]b,,87,,8^3[8:1]b/7q4[8:1]b,,87,,
{8}6/5h[8:2],4,7,3,2/1h[8:2],8,3,7,
{8}56,8,45,2,{16}1V38[16:3],4-7[16:2]b,1,4,,,,,
{16}6bxh[8:1]/2xb,,E5,E4,7xh[8:1],,C,B2,
{16}6xh[8:1],,E5,E4,7xh[8:1],,C,B2,
{16}6xh[8:1],,3,3,8,7,6,5,
{16}1x,2,3,4,56,,47,,
{16}3xh[8:1],,E5,E6,2xh[8:1],,C,B7,
{16}3xh[8:1],,E5,E6,2xh[8:1],,C/B7,,
{24}3,,3,5,,5,4,,4,6,,6,2,,2,8,,,{8}37,65,
{16}47,,2,4,3pp2^8[8:3],,25,,B6f/B7f/E7f,,,,,,,,
{16}61,,7,8,6pp5^3[8:3],,51,,A2f/E3f/D3f,,,,,,,,
{8}C/1h[8:2],5,7,3,C/5h[8:2],1,3,7,
{8}14,25,36,47,5b-1[8:1]/8b^2[8:1]b,,,,
{8}7x,,8x,,1x,,2x,,7x,,8x,,1x,2x,1x,8x,
{8}7x,8x,2x,8x,7x,8x,1x,8x,2x,1x,2x,1x,7x,8x,1x,2x,
{8}4bxh[4:7]/7bx,,8bx,,1bx,2bx,1bx,8bx,7bx,8bx,2bx,8bx,7bx,8bx,1bx,8bx,
{8}E5/B4/B5/2bx,1bx,2bx,1bx,7bx,8bx,1bx,2bx,
{8}E5h[8:4]/B5h[8:3]/B4h[8:2]/3,3,2,2,
{24}1,,,
{24}6,,6,8^3[8:1]b,,,1,,,
{16}8b/6,,7,,1-6[8:1]/5,,3,7,
{16}1,,5,,47,,3,5,
{8}4h[8:2],2,5h[8:2],1,6-8-2-4[8:2],,B5/E5/E6/A5,,
{16}7^4[8:1]b,,8,,73,,1h[8:1],,3q7[8:1],,4,,63,,8h[8:1],,
{16}5,1,3,7pp4[8:3]*pp3[8:3],{24}2,,2,,,E1/B1/B8,,,,,,,,,,,,,
{16}56,,3,4,2-5-1-6[8:3],,18,,7xh[16:3],,,,,,5x,,
{16}47,,1,8,2-5-1-6[8:3]b,,45,,3xh[16:3],,,,,,
{16}2,2,4,,8,8,6,,87,,1/2-6[8:1],,3,4,2,,7,,
{16}8b/1b,,26,,5/4,37,,2b-7[8:1]/6b-3[8:1],,,,,,,,,
{8}5h[8:1],1-5^4-2^1[8:3]b,5h[8:1],,6h[8:1],,6h[8:1],,
{8}7h[8:1]/5,,6h[8:1]/4,,5h[8:1]/3,,4h[8:1]/2,,
{8}3h[8:1]/1-6V83[8:4],,3h[8:1],,4h[8:1],,4h[8:1],,
{12}2x/5x,3,4,2x/5x,3,4,2x-6[8:1]/5x,3,4,2,,,
{8}5b/6b,7,48,3,{24}2q6[8:1],,2,1,,,8,,,7,,,
{8}5b/6b,7,48,3,{24}2^5[8:1],,2,1,,,8,,,7,,,
{16}6x,5,6,5,7x,4,5,4,8xq4[8:1]*v5[8:1],3,4,3,B8,,,,
{16}26,,4/5pp5[8:2]*qq5[8:2],,7,3,,,,,,,
{8}4x/5x,5/6,6bh[8:1]/7bh[8:1],,2h[8:1]/3h[8:1],,
{8}6h[8:1]/7h[8:1],,3h[8:1]/2h[8:1],,
{8}3xh[16:1]/4xh[16:1],3xh[16:1]/4xh[16:1],
{12}2xh[24:1]/5xh[24:1],2xh[24:1]/5xh[24:1],2xh[24:1]/5xh[24:1],
{8}1x-5[8:1]/6x-8[8:1],1x/6x,1x/6x,,
{8}1-5[8:1],4,3,2,
{8}1xh[12:1]/5xh[12:1],1xh[12:1]/5xh[12:1],
{8}2xh[12:1]/6xh[12:1],2xh[12:1]/6xh[12:1],
{12}3xh[24:1]/7xh[24:1],3xh[24:1]/7xh[24:1],3xh[24:1]/7xh[24:1],
{12}4xh[24:1]/8xh[24:1],4xh[24:1]/8xh[24:1],4xh[24:1]/8xh[24:1],
{8}1x/5x-2[8:1]*-8[8:1],7x/3x,,,
{8}17,6,3/5qq5[8:2]b,4,75,8,8,8,
{8}12,{24}7x,6x,5x,{8}34,2,4/5p1[8:1]*v8[8:1],6,B5,,
{8}C/2h[8:2],6,8,4,C/6h[8:2],2,4,8,
{8}14,25,36,47,5b/8b,{16}4,6,4,,35,,
{4}6h[4:1],{64}E4,B4,,,,,,,{8},
{4}6h[4:1],{64}E4,B4,,,,,,,{8},
{4}6h[4:1],{64}E4,B4,,,,,,,{8},
{4}6h[4:1],{64}E4,B4,,,,,,,{8},
{4}3h[4:1],E6/B5,{4}3h[4:1],E6/B5,{4}3h[4:1],E6/B5,{4}3h[4:1],E6/B5,
{4}2-5[8:1],1,7-4[8:1],8,3/2-6[8:1],1,6/7-3[8:1],
{8}8,1,2b/5b,3,74,6,{16}3,3,5,5,2,2,8,8,
{8}3-5[8:1],3,2-6[8:1],2,1,
{24}8,,8,{8}4,8,
{4}7b-2[8:1]/6b-3[8:1],,2-7[8:1]/3-6[8:1],,
{8}3b/E6/A5/D6,7b/B3/E4/B4,2b/E1/B8/B1,6b/D8/E8/A7,
{4}1xbw5[8:1]b/Cf/B5/B4,,
{16}7^4[8:1]b,,81,,73,,1h[8:1],,3q7[8:1],,54,,37,,1h[8:1],,
{16}4,8,2,6pp4[8:3],{24}3,,3>5[24:5]b,,,3b,,,,,,,,,,,,,
{16}56,,3,4,2^4q5^7[8:3],,18,,7xh[16:3],,,,,,8x,,
{16}15,,37,,2^4q5^7[8:3]b,6,4,8,3xh[16:3],,,,,,
{16}1x,2,3/8,,5x,6,37,,12,,8/7-3[8:1],,6,5,7,,2,,
{8}1-3[8:1]b/5,1-7[8:1]b/5,
{8}1xb-4[8:1],1xb-6[8:1],1xb-5[8:1]b,1xb,1xb,,
{8}2h[4:5]/6,,
{64}E4,D4,,,,,,,{8},,,
{64}E5,D5,,,,,,,{8},,,
{64}E6,D6,,,,,,,{8},
{4}3-6[12:1]b/7-2[12:1]b,{64}3b/7b,C/B1/B8/E1f/B7/B2,,,,,,,,,,,,,,,
{8}4bx-7[8:1]/8bx,3,{24}24,,2,,,1x,8x,,,56,,1x,8x,,,56,,,
{24}4-8[8:1]/7-4[8:1],,3x,8x,,,{24}47,,,,,1x,5x,,,34,,1x,5x,,,34,,,
{8}6-1[8:1],7,5,3,2-6[8:1],1,7,5,
{16}3,4,1,8,5,6,,,{8}3-6[8:1]/7-2[8:1],26,D7/A7/E7/D3/A3/E3,,
{8}4x-8[8:1]/8x,3,{24}24,,2,,,1x,7x,,,35,,1x,7x,,,35,,,
{24}4-8[8:1]/2-5[8:1],,1x,5x,,,{24}42,,,,,3x,7x,,,45,,3x,7x,,,45,,,
{16}26,,7,1,8,3,4,2,
{16}7,5,6,4,7,,35,,
{16}8b/1b,,26,,5/4,37,,2b-6[8:1]b/6b,,,
{8}5x,1x,
E
