&title=World Fragments III (radio edit)
&artist=xi
&first=0.035
&des=Neopharmazz
&lv_5=14
&inote_5=(200){16},,,,,,,,,,,,,,,,
5x-8[4:4]/4x-1[4:4],,,,,,,,,,,,,,,,
,,,,,,,,,,,,,,,,
1xv4[2:1]/8xv5[2:1],,,,,,,,,,,,,,,,
4xq1[4:1]/5xp8[4:1],,,,,,,,,,,,,1xs5[8:1]/8xz4[8:1],,,
,,,,,,,,63,,,,72,,,,
1b>1[4:7]/8bh[4:2],,,,,,,,,,,,6,,6h[8:9],,
,,,,,,,,,,,,,,,,
,,,,7h[4:2]/3,,,,,,,,5,,,,
2h[4:1]/6h[4:1],,,,,,,,3h[4:1]/7h[4:1],,,,,,,,
8<8[4:7]/1h[4:2],,,,,,,,,,,,3,,3,,
2h[4:1],,,,,,,,1h[4:1],,,,,,,,
4h[4:2],,,,,,,,,,,,6-3[4:1],,,,
2-7[4:1],,,,,,,,5w1[8:1],,,,,,,,
34,,,,56,,,,24,,,,57,,,,
3-1[8:1]/4,,,,3/4-6[8:1],,,,3-8[8:1]/4-7[8:1],,,,34,,,,
65,,,,43,,,,75,,,,42,,,,
6-8[8:1]/5,,,,6/5-3[8:1],,,,6-1[8:1]/5-2[8:1],,,,65,,,,
8h[4:1]/7,,7,,6,,6,,1h[4:1]/2,,2,,3,,3,,
5h[4:1]/6,,6,,7,,7,,4h[4:1]/3,,3,,2,,2,,
45,,45,,36,,36,,27,,27,,1-4[8:1]/8-5[8:1],,18,,
18,,,,D7/E7,,,,D3/E3,,,8,{24}7,6,5,4,3,2,
{16}1b/Cf,,,,,,,,,,,,,,,,
,,E7/B6/B5,,,,,,B4/B3/E3,,,,,,,,
E8/B8/B1/E2,,,,,,B7/B6/B2/B3,,,,,,,,E6/B5/B4/E4,,
,,,,A7/D7/A6,,,,A2/D3/A3,,,,,,,,
8,,,,7,,,,6,,,,5,,,,
4,,,,3,,,,2,,,,1,,,,
84,,,,73,,,,62,,,,51,,,,
48,,,,37,,,,2z6[8:1]/6z2[8:1],,,,,,,,
45,,45,,45,,36,,,,3-8[8:1]/4,,25,,3/4-7[8:1],,
,,34,,,,1,,82,,{24}3,7,3,{16}7,,4,,
56,,56,,47,,5/6-1[8:1],,,,5-2[8:1]/6,,,,56,,
,,8,,26,,1,,37,,{24}5,4,5,{16}4,,36,,
27,,,,2,3,4,5,8,7,6,5,1,2,3,4,
7,6,5,4,8,1,2,3,1,8,7,6,1,2,3,4,
5x/6x,,5x/6x,,8,7,6,5,4x/3x,,4x/3x,,1,2,3,4,
5x/7x,,,4x/2x,,,6x/8x,,,3x/1x,,,2x/7x,,1x/8x,,
4bx>5[8:22]/5bx<4[8:22],,,,,,,,,,,,,,,,
,,,,,,,,,,,,,,,,
,,,,,,,,,,,,,,,,
,,,,,,,,,,,,,,{24}4,5,4,
{16}6,,6,,6,,6,,6,,6,,6,,4,5,
3,,3,,3,,3,,3,,3,,3,,5,4,
6,3,6,3,6,3,6,3,7,2,7,2,7,2,7,2,
{24}8,7,6,5,,,1,2,3,4,,,8,7,6,5,,,1,2,3,4,,,
{16}B7/B6/C/B2/B3,,7,8,7,,2,1,2,,5,4,5,,36,,
A8,D8,A4,D4,A7,D7,A3,D3,A6,D6,A2,D2,A5,D5,A1,D1,
C,,3,4,3,,6,5,6,,1,,8,,1,,
E8,B3,E7,E2,B6,E3,B7,B4,E6,B1,B5,E4,E8,B2,C,,
3/6h[4:1],,,,5,4,3,2,18,,1-5[16:1]/8-6[16:1],,,,1b/8b/B6f,,
,,3h[8:1],,4,5,6,7,81,,8-4[16:1]/1-3[16:1],,,,8b/1b/B3f,,
,,,,6,5,6,5,7,,,,3,4,3,4,
2,,,,7,6,7,6,8,,,,2,3,2,3,
1bw5[8:5],,,,,,,,,,,,,,,,
3,,7,5,6,,2,4,3,,8,1,7,2,6,3,
5-1V75v7[4:5],,,,1,,1h[8:3],,,,,,,,,,
4,,,,3,,3,,,3,4,,3,,5,,
4-8V24v2[4:5],,,,8,,8h[8:3],,,,,,,,,,
5,,,,6,,6,,,6,5,,6,,4,,
8<4p7p4[4:5],,,,4,,4h[8:3],,,,,,,,,,
3,,,,2,,2,,,2,3,,2,,1,,
83,,7,,16,,2,,3,4,3,,6,5,6,,
2,3,2,4,3,5,4,6,5,7,6,7,5b,4,3,2,
1-7[16:1]/5-7[16:1],,,,1-3[16:1]/5,,,,1-7[16:1]/5-7[16:1],,,,1-3[16:1]/5,,,,
1/5-7[16:1],,,,5/2,,3,,8-2[16:1]/4-2[16:1],,,,8/4-6[16:1],,,,
8-2[16:1]/4,,,,8/5,,4,,3-1[16:1]/7-5[16:1],,,,3/7-3[16:1],,,,
3-1[16:1]/7-5[16:1],,,,7-3[16:1]/3,,,,37,,,,34,5,6,7,
8-2[16:1]/4-2[16:1],,,,8-6[16:1]/4,,,,8-2[16:1]/4-2[16:1],,,,8-6[16:1]/4,,,,
8/4-2[16:1],,,,4/7,,6,,1-7[16:1]/5-7[16:1],,,,1/5-3[16:1],,,,
2-8[16:1]/5,,,,2-4[16:1]/6-8[16:1],,,,6V42[4:1]/2V86[4:1],,,,62,,,,
,,,,18,,27,,,,6,5,4,3,2,1,
8-5[16:1]/4-1[16:1],,,,8-3[16:1]/4-7[16:1],,,,8-5[16:1]/4-1[16:1],,,,8-3[16:1]/4-7[16:1],,,,
84,,,,37,,26,,1-4[16:1]/5-8[16:1],,,,1-6[16:1]/5-2[16:1],,,,
15,,,,26,,37,,4v2[16:1]/8v6[16:1],,,,48,,,,
{12}7h[12:1]/5h[12:1],,6h[12:1]/8h[12:1],,7h[12:1]/1h[12:1],,8h[12:1]/2h[12:1],,1h[12:1]/3h[12:1],,2h[12:1]/4h[12:1],,
{16}3V57[4:1]/5-3[8:1],,,,,,,,8,,,,6V42[4:1]/4-6[8:1],,,,
,,,,1,,,,4-8[8:1]/5-1[8:1],,36,,,,,,
27,,6,,27,,3,,27,,5,,27,,4,,
8,1,7,2,6,3,5,4,6,3,7,2,B8/B1/E1f/A8/A1/D1,,,,
2^5[16:1]/6^1[16:1],,,,2-6[16:1]/6,,,,2^5[16:1]/6^1[16:1],,,,2-6[16:1]/6,,,,
2/6^1[16:1],,,,6/4-8[16:1],,5,,4^7[16:1]/8^3[16:1],,,,8/4-8[16:1],,,,
4/8^3[16:1],,,,7^4[16:1]/8,,6,,7/3-7[16:1],,,,3^6[16:1]/7^2[16:1],,,,
7/3-7[16:1],,,,3^6[16:1]/7^2[16:1],,,,37,,,,3/7-3[16:1],2,1,8,
7^4[16:1]/3^8[16:1],,,,7-3[16:1]/3,,,,7^4[16:1]/3^8[16:1],,,,7-3[16:1]/3,,,,
7/3^8[16:1],,,,3/5-1[16:1],,4,,5^2[16:1]/1^6[16:1],,,,1/5-1[16:1],,,,
5/2-6[16:1],,,,2^7[16:1]/6^3[16:1],,,,2qq7[8:3]/6qq3[8:3],,,,26,,,,
,,,,81,,72,,,,3,4,5-1[16:1],6,7,8,
1V75[16:1]/5V31[16:1],,,,1q5[16:1]/5q1[16:1],,,,1V75[16:1]/5V31[16:1],,,,1q5[16:1]/5q1[16:1],,,,
15,,,,8p4[16:1]/4p8[16:1],,62,,8V24[16:1]/4V68[16:1],,,,8p4[16:1]/4p8[16:1],,,,
84,,,,2p6[16:1]/6p2[16:1],,84,,2V46[16:1]/6V82[16:1],,,,26,,,,
{12}8h[12:1]/6h[12:1],,4h[12:1]/2h[12:1],,4h[12:1]/6h[12:1],,1h[12:1]/3h[12:1],,5h[12:1]/7h[12:1],,5h[12:1]/3h[12:1],,
{16}7-4[8:1]/1-4-7[4:1],,,,,,,,8,,,,2-5[8:1]/8-5-2[4:1],,,,
,,,,1,,,,1-5[8:1]/8-4[8:1],,63,,,,,,
67,,18,,23,,45,,78,,12,,34,,56,,
1,8,2,7,3,6,4,5,3,6,2,7,B5/B4/E5f/A5/A4/D5,,,,
8^3[8:1],,7,,6,,5^8[8:1],,4,,3-6[8:1],,,,32,,
,,7,,86,,1,,8,,2,,13,,8,,
1^6[8:1],,2,,3,,4^1[8:1],,5,,6-3[8:1],,,,67,,
,,2,,13,,4,,5,,1,8,1,,5,,
6^1[8:1],,5,,4,,3^8[8:1],,4,,5w1[8:1],,,,5,,
,,4,,53,,4,,3,2,1,8,7,6,5,4,
3^8[8:1],,4,,5,,6^1[8:1],,5,,4w8[8:1],,,,4,,
,,5,,64,,5,,6,7,8,1,2,,45,,
3h[4:1]/6,,5,,6h[4:1],,4,,3h[4:1],,5,,7h[4:1],,4,,
2h[4:1],,6,,8h[4:1],,3,,1h[4:1],,7,,8h[8:1],,2,,
,,45,,3,4,2,4,1,,6,5,7,5,8,,
A1,D2,A5,D6,A2,D3,A6,D7,A3,D4,A7,D8,A4,D5,A8,D1,
{12}4,3,2,5,6,7,3,2,1,6,7,8,
3,2,1,4,3,2,6,7,8,5,6,7,
2,1,2,7,8,7,3,4,3,6,5,6,
1,1,1,8,8,8,{16}1,2,3,4,8,7,6,5,
4w8b[8:1],,,,4b<4[4:12]*>8[4:6],,,,,,,,,,,,
,,,,,,,,,,,,,,,,
,,,,,,,,,,,,,,,,
,,,,,,,,D3,E3,,,D7,E7,,,
Ch[8:3],,,,,,,,,,,,6,,7,,
8-4[16:1]/3-1[16:1],,,,,,,,1-5[16:1]/6-8[16:1],,,,,,,,
1xh[4:1]/3x,,,,2,,8xh[4:1]/6x,,,,7,6,5,4,3,2,
1x^4[16:1]/8x^5[16:1],,,,18,,,,6x/3x,,2,3,4,5,6,7,
1b/8b,,2,,21,,7,,76,,3,,32,,6,,
6^1[8:1]/5q1[8:1],,,,6p2[8:1]/5^2[8:1],,,,6-8[8:1]/5-8[8:1],,,,65,,,,
12,,7,,78,,2,,23,,6,,67,,3,,
3^8[8:1]/4p8[8:1],,,,3q7[8:1]/4^7[8:1],,,,3-1[8:1]/4-1[8:1],,,,34,,,,
78,,6,,45,,3,,12,,8,,76,,5,,
21,,3,,54,,6,,87,,1,,23,,4,,
7,8,6,1,5,2,4,3,1,2,8,3,7^2[8:1],4,6,5,
7,,,,D3/E3,,,,D7/E7,,,1,{24}2,3,4,5,6,7,
{16}8^5[16:1]/1^4[16:1],,,,8b-4-1-5[2:17]/1b/D1f,,,,,,,,,,,{32}D5,E5,
{16},,,,,,,,,,,,,,{32}D7,E7,{16},
,,,,,,,,,,,,,,,,
,,,{32}D3,E3,{16},,,,,,,,,,,,
,,,,,,,,,{32},D1,{16}E1,,,,,,
,,,,,,,,,,,,,,,,
,,,,,,,,,,,,,,,,
,,,,,,,,,,,,,,,,
,,,,,,,,,,,,,,,,
,,,,,,,,,,,,,,,,
E
