&title=悔やむと書いてミライ
&artist=25時、ナイトコードで。 × 初音ミク
&first=0
&lv_5=13
&des_5=冰羽霧詩
&inote_5=
(194){4},5,3,{8}5,4,
,B6,{4}2,7,8,
B2,6,2,{8}8,B2,
,5,{4}5,{8}E2,E8,E3,E7,
E4,E6,{4}4>1[4:3],5,{8}6,6,
,7,{4}7,8,7,
6,5<1[2:1],4,{8}3,3,
{16},,,,1,8,1,8,2,7,2,7,3,6,3,6,
{8}4b,5-8[8:1],4,3,2,1-4[8:1],8,7,
6,5,5,4/6,3/7,2-5[8:1],1x,8bx/2b,
,7-5[8:1],7,1-3[8:1],1,6-8[8:1],6,4-2[8:1],
4,7qq4[2:1],7,8,8,1,1x,2bx,
,3-8[8:1],4,5,6,7-4[8:1],8,1,
2,3,4,5,6/4,3/7-3[8:1],2x/8,3bx/7b,
,4,,5,3,7,{16}1,8,{8}1q5[8:1],
2x/7,8bx/1b,,6,6,2,2,8,
8,4>1[8:1],5,6,7,8<5[8:1],1,2,
3,4,4,4,5/3,6/2>3-5[8:1],1x/7,2b/8bx,
,7-4[8:1],8,7,2-5[8:1],1,2,8,
8,1,7,1-5[8:1],7-3[8:1],1q6[8:1],7x,1bx,
,7<4[8:1],8,1,2,3>8[8:1],4,5,
6,7,1,8,1,2-5[8:1],3x/8,2b/1bx,
,6,4/5,3,2/6,7,{16}8,1,{8}8-5[8:1],
7x/2,8b/1bx,,,{4}E7,E3,
5/4>1[2:3],5,6,6,
7,7,8,8,
1/8<5[2:3],1,2,2,
3,3,4,{8}4,6,
{4}4-1[2:3],5,5,6,
6,7,7,{8}8,1,
{4}8-5[2:3],1,1,2,
2,3,3,4,
4/5V71[2:1],4,3,3,
{8}2,8,2,8,3,7,3,6,
{4}5/3V17[2:1],4,4,5,
3/6v1[2:1],3,4,{8}4,8,
{4}4>2-8[2:1],7,7,6,
3/6-8>2[2:1],3,4,{8}3,8,
{4}3v6[2:1],8,1,1,
2,2,2b,{16}1,8,1,8,
{8}1,7h[2:1],,2,2,2h[2:1],,6,
5,5,{16},,,B5,B4,E4,,,2,1,2,1,
{8}2,6h[2:1],,3,3,3h[2:1],,6,
7,8,{16},,,B7,B6,E6,{8}6x/3x,,5x/4x,
,4,5,6,7,1/8,2,3,
4/7,2,5/6,7,4/3,2,6,5/4,
2/7,{16}3,5,3,5,4,6,4,6,3,6,3,6,3,7,
3,7,2,7,2,7,{8}2,8/1,8/1-5b[8:1],8/1,8/1,
{16},,,8b-4b[8:1],,7/1,,8b,,,,1b-5b[8:1],,2/8,,1b,
,,,1>3[8:1]/8q4[8:1],,,,8<6[8:1]/1p5[8:1],,,,8b/1b,,,,,{8}7-5[8:1],
8,1-5[8:1],8,7-4[8:1],8,2-4[8:1],1h[16:1],
6,5q4[0.3093##0.6186]*<4[0.3093##0.6186],{16},,5b,,,,,,,,,,,,,6b-3b[8:1],
,2,,6b,,,,2b-7b[8:1],,6,,2b,
,,,,{8}7b-4b[8:1],8b-3b[8:1],7b,8b,,,,2-4[8:1],
1,6-8[8:1],5,2-5[8:1],1,7-4[8:1],
6,1-5[8:1],,1,6V82[8:1],2V46[8:1],{4}6,
{8},,1b-5b[8:1]/2b-6b[8:1],3/8,{4}2b/1b,{8}8b-4b[8:1]/7b-3b[8:1],6/1,
{4}7b/8b,{8}7b-5b[8:1],3b-1b[8:1],7b,3b,,2-6[8:1],
1,7-4[8:1],8,3-1[8:1],2,8-4[8:1],7,2q6[8:1],
1,8,8h[8:1],2h[8:1],6h[8:1],4h[8:1],7h[8:1],1h[8:1],
5h[8:1],3h[8:1],7-4[8:1],2-5[8:1],7,2,,8-4[0.3093##0.1546],
{16},,8<4[0.3093##0.3866]*>4[0.3093##0.3866],,,,,,,,,,,,,,{8},
5bh[4:3],,4bh[2:1],,,,,,5/4,
4/5,6/3,{16}6/3,7,2,7,2,8,1,8,
1,7-3[8:1],2,7>5b[8:9],2,7,{8}Cf,{1},{4},,{16},,,3,
,4,,2,,6,,5,,7,,2,
,8,,2,,7,1,8,1,8,2,7,1,8,3,6,
1,8,4,5,1,8w4b[8:5],,,,,,,,,,,,,,,,,,,,7-5[0.3093##0.1546],
,8-4[8:1],,7,,8,
,,,6,,4/5,,7,,4/3,,2,,8,1,8-4[8:1],
,2/7x,,8b/1bx,{4}Cf,{16},,,,,,,,,,,4,
,,,4,,5,,,,B4,,B5,
,,,5,,,,5,,4,,,,B5,,B4,
,,,4,,,,4,,5,,,,B4,,B5,
,,,5,,,,5,,4,,,,B5,,B4,
,,,7>1-5-3[16:9],,,,,,,,,,,,,,,,2-8v3<5[16:9],
,,,,,,,,,,,,,,,C,
,,,B6,,E5,,,,B3,,,,7<6-4-2<1-5[4:11]/1>2-4-6<7-3[4:11],
E
