&title=「Nayanion.」
&artist=V在燃烧
&first=0
&des=心白-HW
&des_5=心白-HW
&lv_5=13+
&inote_5=(123){4},{12},,,,,,,,,8z4[8:3]*pp5[8:3],
8,{6}8,{4},{16},,{24},{16}3>8[8:1],4,5,6,
{4}3b/7<4[8:1],7/1-5[8:1],1/5-1[8:1],5-8[8:1]*-7>8[8:1],
5-2[8:1]*-3>2[8:1],5w1[8:1]*w1[8:1],5,1V36[8:1]*V74[8:1],
1,5p8[8:1]*q2[8:1],5,8V64b[8:1],
8/1-5b[8:1],1/7-3[8:1],7/2-6[8:1],2/8-5[8:1]*z4[8:1],
8,5-8[8:1]/4z8[8:1],5/4,1-5[8:1],
1qq7[8:1]*qq7[8:1],1-5[8:1]*>2v3-5[8:1],1,8-2[8:1],
{12}8-6[8:1],3,3,{48}8-3[8:1]*>2[8:1],,,5,,,{8}5,{4}8-5[8:1]*<6[8:1],8,
4p5[16:3],5<4[24:5]*q4[24:5],{64},E6,,E7,,E8,,E1,,E2,,E3,,E4,,,{4}Ch[8:1],
{16}4,5,2,1,3x,4,1,8,4,5,8,7,{8}5xh[8:1],6,
{16}5,7,1,8,2x,4,1,7,3,5,2,8,{8}4xh[8:1],6,
{16}3,3,5,2,7x,7,1,8,2,2,5,4,6x,6,1,7,
{4}2h[4:3],1<4[4:1],{2}A1f,
{12}1-5[8:1],8,7,1V35[8:3],{24},{8}8,{16}1,8,,8,{8}7,7,
{12}8-4[8:1],1,2,8<4[8:3],{24},{8}1,{16}8,1,,1,{8}2,2,
3v8[8:1],{16}7-4[8:1],7,{8}3,7,{16}1q5[8:1],1,5q1[8:1],5,,,,,4,
5,1,2,5b,6,2,3,6,7,{8}8/1,8-3[12:1]/7-3[12:1],6,
{1}8/7<2[2:3],
{16},,,,,,E8,B6,,E1,{8}C,,,{1}1>8[2:3],
{16},,,,,,E3,B4,,E2,{8}C,,,8/E4,
8,7/E3,7,6/E2,6,5/E1,5,
4/E8,4,3/E7,3,2/E6,2,1/E5,1,
{16}2,2,3,3,4,4,5,5,{32}5x,6x,7x,8x,1x,2x,3x,4x,5x-1[8:5],6x,7x,8x,1x,2x,3x,4x,
{4}5,6,7,1/8b-6[8:1],
{16}1/8-4[8:1],,,1,{8}1/8-6[8:1],1,2/8-4[8:1],2,{4}2/8-6[8:1],
3/8-4-2V48-6[8:5],2h[8:1],{8}1h[16:1],1,{4}1-3[8:1],
{16}8/1-5[8:1],,,8,{8}8/1-3[8:1],8,7/1-5[8:1],7,{4}7/1-3[8:1],
6/1v4[8:1]*v7[8:1],1p5[8:1]*q5[8:1],,1/8-6[8:1],
{16}1/8-4[8:1],,,1,{8}1/8-6[8:1],1,2/8-4[8:1],2,{4}2/8-6[8:1],
3/8q4[8:1],{8}3/8qq6[8:1],3,8/2h[16:1],2,{4}8/1-3[8:1],
{8}6/1-5[8:1],7,6/1-3[8:1],4,6/1-5[8:1],7,{4}1/8-6[8:1],
{8}3/8-4[8:1],2,3/8-6[8:1],5,3/8-4[8:1],2,{4}8/1-3[8:1],
{16}8/1-5[8:1],,,8,{8}8/1-3[8:1],8,7/1-5[8:1],7,{4}7/1-3[8:1],
6/1-5-3V51-7[8:5],7h[8:1],{8}8h[16:1],8,{4}8-6[8:1],
{16}1/8-4[8:1],,,1,{8}1/8-6[8:1],1,2/8-4[8:1],2,{4}2/8-6[8:1],
3/8v5[8:1]*v2[8:1],8w4b[8:1],,8/1-3[8:1],
{16}8/1-5[8:1],,,8,{8}8/1-3[8:1],8,7/1-5[8:1],7,{4}7/1-3[8:1],
1-5[8:1]*-5-1[4:1],1p5[8:1]*q5[8:1],,1/8-6[8:1],
{8}3/8-4[8:1],2,3/8-6[8:1],5,3/8-4[8:1],2,{4}8/1-3[8:1],
{8}6/1-5[8:1],7,6/1-3[8:1],4,6/1-5[8:1],7,{4}1/8h[4:1],
{8}4>1[8:1],{16}3,3,{8}8<5[8:1],7,4,3,2v4[8:1],4V28[16:3],
{4}2,7-3[12:1],7,{8}2>4[12:1],{16}1,1,
{8}6<8[12:1],5,2>4[12:1],1,6<8[12:1],5,2,1,
8qq6[8:1],8pp2[8:1],{4}8-4[8:1],,1/8-5-3[8:1],
8-2[8:1]/1-5[8:1],1/8,6h[8:1]/3h[8:1],7h[8:1]/2h[8:1],
{256}8-4[8:1],1-5[256:31],{16},,,{64},,,{128},{256}8-6[12:1],1-3[768:61],{16},,,{64},,,{128},{256}A8,A1,{16},,,{64},,,{128},{4}4V25v6-8[8:5],
4h[2:1],,,1<6[8:1]/5>2[8:1],
5q5[8:3]/1q1[8:3],,,Cf,
{16}2b,8,3,7,4x,6,3,5,2b,8,4,6,1x,8,3,5,
2b,7,4,5,2x,6,4,8,5b,7,4,6,3x,5,2,4,
1b,5,2,6,3x,7,4,8,4b,4,8,8,3x,3,7,7,
2b,6,3,5,4x,6,2,8-4[16:1],1,1-6[16:1],8,8bx>3[16:1],,1bx,,8bx,
,,,,{4}4h[8:1],{12}5h[6:1],4,{24}4,,,,,6,{48},{16}3,
{4}6h[8:3],3h[4:1],{16}6,6,3,3,7,7,2,2,
{4}8h[8:3],1h[4:1],{16}8,8,1,1,7,7,2,2,
6,3,7,2,8,1,7,2,{8}6pp5>4[4:1],{16}6,6,,,,,2<1-5>4-2[2:3],
,,7,,,{8}7,,7,,,6,
,,6,,6,{16},,,,6>5-1<8-6[2:3],
,,3,,,{8}3,,3,,,2,
,,2,,2,,,5/1,
{16}5,2,{8}6,6,7/3,{16}7,4,{8}8,8,
1/5,{16}1,6,{8}2,2,3/7,{16}3,8,{8}4,4,
{16}4,8,4,7,4,6,4,5,{32}4x,3x,2x,1x,4x,5x,6x,7x,4x-8[8:5],3x,2x,1x,4x,5x,6x,7x,
{4}4,3,2,8/1-3[8:1],
{16}6/1-7[8:1],,,6,{8}6/1-3[8:1],6,5/1-7[8:1],5,{4}1-3[8:1]/5-7[8:1],
5/1-7[8:1],{8}1-5[8:1],{16}6x,6x,1,7x,{8}7x,{4}4/8-6[8:1],
{16}3/8-2[8:1],,,3,{8}3/8-6[8:1],3,4/8-2[8:1],4,{4}8-6[8:1]/4-2[12:1],
4/8-2[8:1],{8}4/8-4[8:1],{16}3x,3x,8,2x,{8}2x,{4}5/1-3[8:1],
{16}6/1-7[8:1],,,6,{8}6/1-3[8:1],6,5/1-7[8:1],5,{4}1>3[8:1]/5<7[8:1],
5/1<7[8:1],{8}1-5[8:1],{16}6x,6x,1,7x,{8}7x,8/3,2-4-8b[4:1]*-4[128:13],
8-6[8:1],2,{4}8,5h[8:1]/1h[8:1],{8}7b/3b,5-8-4b[4:1]*-8[8:1],
4-1[8:1],5,{4}4,2h[8:1]/6h[8:1],4/8b-6[8:1],
{8}8-2[8:1],1,8<6[8:1],3,8>2[8:1],4,8-6[8:1],5,
8-2[8:1],4,8-4[8:1],3,8,2,{4}5/1b-3[8:1],
{8}1-6[8:1],6,1-4[8:1],4,1-7[8:1],7,1>4[8:1],4,
1-6[8:1],6,1-5[8:1],7,1,8,{4}4/8b<5[8:1],
{8}4/8-3[8:1],1,4/8-5[8:1],6,4/8>3[8:1],2,4/8-6>5[6:1],6,
4/8-2>3[6:1],2,4/8p4[8:1]*q4[8:1],7,{4}8,3b-1[8:1]/5b-1[8:1],
5-7[8:1]/3-7[8:1],3v8[8:1]/5v8[8:1],5/3,7b<5[8:1]/1bp5[8:1],
1>3[8:1]/7q3[8:1],1p4[8:1]/7q4[8:1],7/1,6b/2b,
{8}7-4[8:1],3-6[8:1],7-2[8:1],3-8[8:1],{2}7<4p7[16:3],
{8}2-5[8:1],6-3[8:1],2-7[8:1],6-1[8:1],{2}2>5q2[16:3],
{8}8-5[8:1],4-7[8:1],8-3[8:1],4-1[8:1],{2}8<5v8[16:3],
{8}1-4[8:1],5-2[8:1],1-6[8:1],5-8[8:1],{2}1>4v1[16:3],
{8}8-5[8:1],8-3[8:1],8-4[8:1],8<5[8:1],{2}8>3[8:1],
{8}1-3[8:1],1-7[8:1],1-5[8:1],1>4[8:1],{2}1<6[8:1],
{8}8-2[8:1],8,8-4[8:1],8,8-3[8:1],8,8-5[8:1],8,
8-4[8:1],8,8-6[8:1],8,8w4b[8:1],8,{4},{256}5h[8:5],
3h,{16},,{64},,,{128},{16}3h,,,{8}3h,,3h,
E
