&title=“高山流水”哈基米
&artist=溶于水的A叔
&artistid=1011
&des=Muz
&whole_bpm=84
&demo_seek=13.3
&demo_len=20
&first=0.05
&shortid=1000011
&genre=niconicoボーカロイド
&genreid=102
&cabinet=DX
&version=maimai DX PRiSM
&lv_2=2
&des_2=Muz
&lv_3=5
&des_3=Muz
&lv_4=8
&des_4=Muz
&lv_5=11+
&des_5=Muz
&inote_2=
(69){4}5h[4:1],,(70)5,(64)4,
(77.6){1}4b,
(72){4}3,3,(66)2,(80)2,
(72)1,1b,1b,1b,
(78){2}8h[#1.538462],(70){4},8,
(77)7,7,6,6,
{2}5h[4:1],{4}5,4,
{2}4,{4}5,5,
(80){2}4-1[0.75##1.5395],(76),
5-8[0.7895##1.6003],(74),
(78)Cf,(86),
(88)B7,(74)B8,
(84)B1,(78)B2,
(79){1}B5/B4,
(92.5)4xh[2:1],
5xh[2:1],
(84){4},(86)5/4,,(81)5/4,
,(84)Cf,,,,5h[2:1],
,,5,
6h[2:1],,,6,
(82)7,7,(88)8,
8,(86)1,{2}1b,
{4}2xh[#0.69767],(96),(84)2,(80)3,
(94)4,4b,
E
&inote_3=
(69){4}5h[4:1],{8},4,(70){4}4,(64)5h[#0.9375],
(77.6){1}4b,
(72){24}4/5,,,,,4,{8}5,5,(66){4}6,(80){8}6,7,
(72){4}8,1b,{8}1b,8,{4}1b,
(78){8}2h[4:1]/8h[4:1],,,1,(70){4}7/3h[4:1],5,
(77)4/6h[4:1],3h[4:1],5h[4:1],{8}4,4,
{4}5/3,4/6,6/3,{8}5/4,1/8,
{2}4/5-8[4:1],1-4[0.7792##0.7792],
(80){4}5,{8}6/4,5,(76)5/3,4,5,6,
7/1h[8:3],,,8,(74){2}7/1h[4:1],
(78)Cf/B7/B6/B2/B3,(86),
(88){8}4h[8:3],,,6,(74){4}6h[4:1],4h[#0.8108101],
(84){8}5h[4:1],,,4,(78){4}4h[4:1],5h[#0.7692299],
(79){1}3h[4:1],
(92.5){8}3x,3,4,4,5,5,6,6,
4,4,5,5b,,,,,(84){4}4xh[#0.7142868],
(86)5-8[0.6977##0.6977],,(81)1-4[0.7407##0.7407],
,(84)Cf,,,,5h[4:1],
{8}4,4,{4}3,
3b,4h[4:1],{8}5,5,{4}6,
6b,(82)1h[4:1],8h[#0.7317047],(88){8}1,1,
{4}2,(86)3/5,{2}4b,
{4}5h[#0.69767],(96)4h[#0.625],(84){8}6,6,(80){4}5h[#0.75],
(94){8}3,3,{4}4b,
E
&inote_4=
(69){4}5h[4:1],{8},4,(70){4}4h[#0.8571428],(64)5h[8:1],
(77.6){32}4qq1[8:3]/6pp1[8:3],{4},,,{16},{32}1xh[#0.4832478],,,,,(72){16}8,
,,7,{8}7,6,(66){4}5h[#0.909091],(80){8}4h[#0.75],5x,
(72){4}3x,5b,{8}5b,3,{4}5b,
(78){8}6/4h[4:1],,,5,(70){4}3/5h[4:1],4,
(77)4/6<1[8:1],4>1[8:1],6,{8}8/7,6/1,
{2}7v4[8:1]/2v5[8:1],{4}4/5,{8}6/3,8/1,
4h[4:1]/5h[4:1],,,5/4,{4}5/3>8[8:1],5<8[0.7792##0.375],
(80)4,{8}1/4,1,(76)4/8,8,7/4,{32}6,5,6,5,
{8}6pp1[0.7895##0.7895],,,5,(74){2}4qq4[16:3],
(78)Cf/B8/B7/B6/B5/B4/B3/B2/B1/E7/E1/E5/E3,(86){4},5xh[#0.6976738],
(88){8}4xh[8:3],,,5,(74){4}3xh[4:1],2h[#0.8108101],
(84){8}1xh[8:3],,,8,(78){4}8h[4:1],7h[#0.7692299],
(79){24}6h[2:1],,,,,,,,,,,,,,,,,,,5,4,6,4,5,
(92.5){8}4h[24:1]/6xh[24:1],6h[24:1]/3h[24:1],2h[24:1]/6h[24:1],1h[24:1]/6h[24:1],7h[24:1]/8h[24:1],2h[24:1]/1h[24:1],3h[24:1]/4h[24:1],6h[24:1]/5h[24:1],
{24}4,5,3,5,4,6,4,5,3,5b,,,,,,,,,,,,,,,(84){4}4xh[#0.7142868],
(86)5,{8},6/3,(81){4}4/5,
,(84)Cf/E7/B7/B2/E3/B3/B6,,,,4,
{8}4,6,{4}4,
4b,5,{8}5,3,{4}5,
5b,(82)6-1[8:1]/4-1[8:1],{8},,(88)2/8,3/7,
{4}6/4,(86)5w1b[8:1],,,4h[#0.69767],
(96)5h[#0.625],(84){8}3,3,(80){4}4,
(94){8}6/2,7/1,{4}8b,
E
&inote_5=
(69){4}5h[8:3],{8},4,(70){4}4,(64)6h[#0.9375],
(77.6){6}3bxqq5<4[2:1],{24},,,,,,,,,,,,,,,,5,4,6,4,
(72){16}5/3,,,1,{8}8h[8:1],2h[#0.4166665],(66){4}6h[#0.909091],(80){48}4,,,,,4x,{8}3x,
(72){48}5x,6x,,,,,,,,,,,{4}1b,{8}1b-5[12:1],8,{4}7/1b,
(78){8}6/4h[8:3],,,6,(70){4}5w1[16:1],5/Cf,
(77)1/3pp6[4:1],3/6<3[16:3],{8},,4-8[12:1],5,
{4}4/6-2[12:1],6/8V64[8:1],8/1-5[12:1],{8}1/3qq7<3[8:3],4,
3,,,8,{4}7qq4[16:3]/1pp4[16:3],1/7,
(80)5xh[4:1],{8}3h[8:1],6h[#0.375],(76)2h[8:1],8h[8:1],4h[8:1],{48}5bx,6,7,8/1x,2,3,
{8}4/5xh[8:3],,,1bxh[#0.3947353],(74){2}7xh[8:3],
(78)A3/A2/A1/A8/A6/A7/D4/D5/D6/B5/E6/E5/B4/E4/B3/D3/E3/Cf/B7/E7/B6/D7/E8/A4/D8/E1/D1/B1/E2/D2/B2/B8/A5,(86){4},{24}4qq1-7-5[0.6977##0.9091],5,3,5,{12}4,
(88){8},,,4,(74){24}6,4,{12}6,,{4}7qq4[0.8108##0.7143]/3qq8[0.8108##0.7143],
(84){8}3/7,,,5/1,(78){4}7/3h[4:1],5w1[0.7692##0.2532],
(79){24}5/Cf,,,,,,,,,,,,,,,,,,,8,1,7,2,6,
(92.5)3bx,4,3,6,5,6,2,1,2,7,8,7,3,4,2,6,5,7,3,4,1,6,5,8,
4x,5,3,6,2,7,1,8,2,7b,{4},,{16},{64},{192},(84){32}5/4x,
3,2,1,8,7,6,5,(86){4}4xh[8:3],{8},6h[#0.348835],(81){4}2h[4:1],
,(84)D8/A8/B8/B7/E7/A6/E6/D2/E2/B3/A3/E4/A4/B2/Cf,,,,5,
{8}5,5,{4}5<8[12:1]*qq2[24:5],
5,1,{8}1<6[12:1]*>4[12:1],1,{4}1w5[12:1],
1/Cf,(82)3q6[0.7317##0.7317],3/6<5[0.7317##0.6818],(88){8}5qq1[0.6818##0.6818],6,
{4}7,(86)8w4b[12:1],{2}8/Cf,
{8}4h[8:1],6h[#0.3488312],(96){4}2h[8:1],(84){8}2qq4[0.7143##0.5]/6pp4[0.7143##0.5],3/5,(80){4}6/2,
(94){8}5pp1[4:1]*qq1[4:1],6/4,{4}5/B5f,
E
