&title=Honey❤Come!!
&artist=小倉唯 「城下町のダンデライオン」
&first=0
&des=私、大統領になります。
&lv_5=13+
&inote_5=(184)
{1},
{1}1b>1[2:3],
{1},
{1}6bqq3[2:3]/3b,
{1},
{2}4b-6[8:1]/1h[4:1],4b-7[8:1]/1h[4:1],
{2}4b-8[8:1]/2h[4:1],4b-1[8:1]/3h[4:1],
{8}8/4,6,1/5,3,7/4,6,2/5,3,
{4}6b-8[8:1]/4b-8b[8:1],6b^3[8:1],6b/2b,E2/E1/E8/A8/A1/D2/A2/D8/A7,
{8}2x-6[8:1]/6,,8-5[8:1]*-3[8:1],,,,4,3h[4:1]/5,
{8},1,1,2,3-1[8:1]/8-4[8:1],,,,
{8}7-3[8:1]/3,,5^2[8:1]*^8[8:1],,,,1,2/8h[4:1],
{8},5,5,6,4-8[8:1]/7-5[8:1],,,,
{8}1h[8:3],,E3/B3,E3/B3,4h[4:1],,C,,
{8}1h[8:3],,E3/B3,E3/B3,4h[4:1],,C,,
{8}1h[8:3],,E3/B3,E3/B3,4h[4:1],,C,,
{16}1,,1,,2/8,,2/8,,3h[4:1]/7x,,2x,1x,8x,7x,6x,5x,
{8}1x-5[8:1],,1-3b[8:1]/5-7[8:1],,,,1/5,3qq4[16:5]/7,
{8},8,7,6,5-1[8:1]*-2[8:1],,,,
{8}8-4[8:1],,8^5[8:1]/4^1b[8:1],,,,8/4,2/6qq7[16:5],
{8},8,1,2,3-7[8:1]*-8[8:1],,,,
{8}1h[8:3]/6,,E3/B3,B5/E5,6h[4:1],,E1,,
{8}1h[8:3]/4,,E3/B3,B5/E5,6h[4:1],,E1,,
{8}1-5[8:1],1,5,6,7^4[8:1],7,3,2,
{8}1/5,2,3/4,5,2-7b[8:1]/6-3b[8:1],,{48}E3/E7,Cf,,,,,,,,,,,
{8}4xpp3[2:1]/8x,,,,,,,,
{8}1h[8:3]/8,,,3-6[4:1],,,,,
{8}1xqq2[2:1]/5x,,,,,,,,
{8}4h[4:1]/5,,3h[4:1],,2^7b[8:1],,6,6,
{8}8x/5x,6,1/4,3,8/5,7,1/4,2,
{8}1x/3x,4,6/8,5,1/2,4,7/8,5,
{16}2x,8,2,7,2,6,2,5,1x,2,3,4,1x/5,8,7,6,
{16}3x,4,3,5,3,6,3,7,4x,3,2,1,4x/8,5,6,7,
{8}5bx/8,5bx^2[8:1],,8b-4[8:1]/5,,1b^6[8:1]/8,,1/5bh[8:3],
{8},,A8f/E8/E1/B8/D1/D8,,,2-6[8:1]/1,4V61[32:7],2,
{8}4b,,,8/4,7,6/5,4,8^3[8:1]/3,
{8},5-1[8:1]*-2b[8:1],,5b,,8-3[8:1]/3,5V31[32:7],8,
{8}5b,,,7/8,6,4/5,3,2^5[8:1]/6,
{8},8-4[8:1]/2,,8bqq6[32:5]*pp2b[32:5],,,,1x/7x,
{8}1x/7x-5[8:1],,7-3[8:1],1,1^3b[8:1]*-5[8:1],,1x,,
{8}4x/2x-8[8:1],,2-6[8:1],4,4^2b[8:1]*-8[8:1],,4x,,
{8}1x/7x-3[8:1],,7^5[8:1],2,2^5[8:1]*^7b[8:1],,2bx,,
{8}5x/6x,7/8,1/2,3b/4b,,7-3[8:1]/8,5V38[32:7],7,
{8}5b,,,1/5,2,3/4,5,1^6[8:1]/6,
{8},4-8[8:1]*-7b[8:1],,4b,,1-6[8:1]/6,4V68[32:7],1,
{8}4b,,,2/1,3,5/4,6,7^4[8:1]/3,
{8},1-5[8:1]/7,,1bpp3[32:5]*qq7b[32:5],,,,8x/2x,
{8}2x^5[8:1]/8x,,2-6[8:1],8,8-5[8:1]*-3b[8:1],,8x,,
{8}7x^2[8:1]/5x,,7-3[8:1],5,5-8[8:1]*-2b[8:1],,5x,,
{8}3x^8[8:1]/7x,,4^7[8:1]/3,5,2x-5b[8:1]/4x,1x-6b[8:1],2x,1x,
{8}3b,2b/4,1b/5,8b/6h[4:1],,5-8[8:1],4,3/5,
{8}2b-6[8:1],2,8-3[8:1],8,4^1[8:1],4,7-3[8:1],7,
{8}1xV35[4:1],1,5,6,7h[4:1],1-6[8:1],2,1/3,
{8}4b-8[8:1],4,7-4[8:1],7,2-7[8:1],2,5-8[8:1],5,
{8}1b-5[8:1],2,7b-4[8:1],6,3b-1[8:1],2,6b-4[8:1],7,
{16}1xb,,3,3,4,,2/5,,7/4,,6,6,5,,1/8,,
{16}3/7,,4,4,5,,3/6,,4,3,2,1,7,6,5,4,
{8}1b^6[8:1],2,3,4^1[8:1],5,6,7^4[8:1],8,
{8}1-5-1b[4:1],1,,7bh[4:1],,8,1/6,,
{8}5b^2[8:1],6,7,8^5[8:1],1,2,3^8[8:1],4,
{8}5-1-5b[4:1],5,,3bh[4:1],,6^1b[8:1],4^1b[8:1],6pp4[8:13],
{8}4bxqq5[8:12],,,,,,,,
{1},
{1}5bpp4b[8:11]/3bqq5[8:11],
{1},
{2}1b-4[8:1]/2h[4:1],1b-5[8:1]/3h[4:1],
{2}1b-6[8:1]/4h[4:1],1b-7[8:1]/5h[4:1],
{8}8/3,6/1,7/4,5/2,{16}8x/4x,7,6,5,{24}2x/4x,1x,8x,7x,6x,5x,
{32}8x/4bxh[2:1],,,,,,,,,,,,A2f,B2,C,B6,A6,,,,,,,,,,,,,,,,
