&title=夏竜~Karyu~
&artist=azupiano
&first=-0.14
&des=Nyan@noidea
&lv_5=13+
&lv_7=藏
&inote_1=||For
Delay
(68)
{8},,,,,,,,,,{16},,,
(136)
{16}3/7,,,,1,,,,3/7-5[8:1],,,,71,,,,
{16}3,,,,7-5[8:1]/2,,,,87,,,,2,,4,,
{16}35,,,,7,,,,8-6[8:1]/4,,,,2/8,,,,
{16}4,,,,8-6[8:1]/3,,,,18,,,,3,,5,,
{16}64,,,,7,,,,8-6[8:1]/4,,,,8/1-5[8:1],,,,
{16}12,,,,16,,,,7h[8:1]/4h[8:1],,,2h[8:1]/5h[8:1],,,83,,
{16},,,,1b,,,,,,,,,,,,
{16}1,1,8,1,,,,,,,,,,,,,
{16}2,,2,,5,,,3,7,,5,,8,,,,
{16}2,,4,,3,,7,,5,6,,6,5,,7,,
{16}3,,5,,4,,6,,5,7,,7,2,,4,,
{16}3,,5,,4,,7,,5,6,,6,5,,8,,
{16}2,,4,,3,,7,,5,8,,8,1,,7,,
{16}7-5[8:1]/5,,3,,7,,2,,4,3,,3,4,,2,,
{16}4-6[8:1]/3,,1,,4,,3,,2-4[8:1],7,,7,2,,8,,
{16}7-4[8:1]/5,,8,,72,,1,,1-4[8:1],4,,4,1,,6,,
{16}7-3[8:1]/5,,1,,37,,1,,1b,1b,,5,,,7,,
||A
{16}3-5[16:2],,,7,3,,7,,2-5[16:2],,,7,2,,8,,
{16}4-1[16:2],,,7,4,,8,,1,,2,,3,,4,,
{16}6-4[16:2],,,2,6,,2,,7-4[16:2],,,2,7,,1,,
{16}8b,,,7b,,,6b,,,5b,,,4b,,3,,
||A+
{16}2-4[16:2],,,1,2,,8,,7-4[16:2],,,8,7,,1,,
{16}2-6[16:2],,,1,2,,8,,7,,6,,5,,4,,
{16}3-1[16:2],,,4,3,,5,,6-1[16:2],,,5,6,,4,,
{16}3b,,,2b,,,1b,,,8b,,,7b,,6,,
||A1
(2+2)
{16}2-4[16:2],,,5,2,,6,6,5-2[16:2],,,7,5,,6,6,
{16}1>4[8:1],,,5,1,,7,7,5>2[8:1],,8,,57,,6,,
{16}7-5[16:2],,,4,7,,3,3,4-7[16:2],,,2,4,,3,3,
{16}8b,,,1b,,,2b,,,3b,,,4b,,5,,
||A1
(2+2)
{16}7<4[16:2],,,3,7,,1,1,4<7[16:2],,,2,4,,3,3,
{16}8<5[16:2],,,2,8,,1,1,4,,5,,6,,7,,
{16}8-4[16:2],,,3,8,,1,1,5<8[16:3],,,2,5,,4,4,
{16}1b,,,2b,,,3b,,,4b,,,5>6[4:2],,6b,,
{16},,,,,,,,,,,,,,4,,
||B-
{16},,6,6,,4,,8,,2,6,2,,,,,
{16}7,,4,4,,8,,2,,4,8,,{32}1,2,3,4,5b,,,,
{16}2,6,,8,,4,,8,,1,5,,7,,4,,
{16}1,2,,3,,4<7[4:1],,,,,,,,,3,,
||B
{16}8,8,,1,,53,,53,,5,4,,7,,46,,
{16}2,2,,8,,75,,75,,2,8,,4,,46,,
{16}4,5,,1,,64,,64,,7,7,,5,,46,,
{16}8,8,,64,,5,,5,,3,3,,7,,5,,
{16}1,1,,3,,35,,35,,1,7,,6,,53,,
{16}8,1,,2,,35,,2,1,8,7,,5,,64,,
{16}1,2,,3,,1,,1,,8,7,6,5,,{16}3,4,
{16}2,6,5,7,2,1,3,7,8,6,4,,2,,8,,
{16}8,2,,4,,3-7[8:1]/5,,,8,,1b,,,,46,,
{16}2,1,,8,,75,,75,,2,1,8,7,,4/6,,
{16}3,3,,8,{32},7>2[8:1],{16}6,,,,3,4,,5,,6,5,
{16}8,4,6,2,5,3,{32}7,8,{32}1,2,3,4,{32}5,6,{16}7,,8,,5,,
{16}1,2,,3,,5-2[8:1],,,1,,8b,,,,5,,
{16}1,2,,4,,3-7[8:1],,,1,1b,,,2,,4,,
{16}8,1,,3,,1,,1,,8,7,6,5,,{16}3b,4,
{16}2,6b,5,7,2b,1,3,7b,8,6,4b,7,5,1b,2,7,
{16}8b,5,4,8b,1,5,4bq5[4:1]*>5[4:1],,,,,,,,,,
{16},,48,,,,2q4[4:1]/6<3[4:1],,,,,,,,,,
{16},,56,,,,2q3[4:1]/5<2[4:1],,,,,,,,,,
{16},,45,,,,7p6[4:1]/6>7[4:1],,,,,,,,,,
{16},,43,,,,1p7[4:1]/5>8[4:1],,,,,,,,,,
{16},,65,,,,1q3[4:1]/5<2[4:1],,,,,,,,,,
{16},,48,,,,1q4[4:1]/6<3[4:1],,,,,,,,,,
{16},,65,,,,2q3[4:1]/3<2[4:1],,,,,,,,,,
{16},,45,,,,7,,,5,,7,7,,1,,
{16}3,,5,,,2,2,,5,,1,,37,,,5,
{16},,26,,5,,47,,,5,,,26,,8,,
{16}6,,84,,,3,,,15,,3,,84,,,2,
{16}2,,{32}1,2,3,4,{32}5,6,7,8,1,2,3,4,{16}5b,,1,1-5[8:1],,,5>2[12:1],,
{16}7,,8,,7<4[8:1],7,,8-3[16:3],8,,,,3<6[8:1],,6,,
{16},1-5[16:3],1,,5<8[8:1],,2,,4,,2,2,1,2,8,3,
{16}7,4,6,5,7,8,6,1,5,2,4,3,5,4,8,1,
{16}7,2,8,3,5,4,6,3,8,1,5,4,7,8,6,1,
{16}5,2,4,3,5,4,6,3,8,1,5,4,6,5,7,4,
{16}8b-4[8:1],8,,4<7[8:1],,1,1,,2,,2,2,1,2,8,3,
{16}7,4,5,2,6,1,8b-5[8:1],8,,5-2[8:1],,1,1,,8,,
{16}3,4,2,5,1,6,8,7,1,8,4,5,3b<6[8:1],3,,6-2[8:1],
{16},8,8,,7,,5,2,6,3,7,4,8,1,6,5,
{16}7,8,6b-2[8:1],6,,2>5[8:1],,1,1,,8,,7,,6<1[12:4],6,
{16},,8>3[12:4],,,,2>5[12:3],,,,4,,,,1b-5[12:1],1,
{16},6,,,7b-3[8:1],7,,2b,,,,1v3[12:1],,,5-8[12:1],,
{16},4b,,,,,{32}1,2,3,4,{16}5,,,,,,,,
{16},,,,,,,,,,,,,,,,
{16},,,,,,,,,,,,,,,,
{16},,,,,,,,,,,,,,,,
E
&inote_5=||For
Delay
(68)
{8},,,,,,,,,,{16},,,
(136)
{16}3/7,,,,1,,,,3/7-5[8:1],,,,71,,,,
{16}3,,,,7-5[8:1]/2,,,,87,,,,2,,4,,
{16}35,,,,7,,,,8-6[8:1]/4,,,,2/8,,,,
{16}4,,,,8-6[8:1]/3,,,,18,,,,3,,5,,
{16}64,,,,7,,,,8-6[8:1]/4,,,,8/1-5[8:1],,,,
{16}12,,,,16,,,,7h[8:1]/4h[8:1],,,2h[8:1]/5h[8:1],,,83,,
{16},,,,1b,,,,,,,,,,,,
{16}1,1,8,1,,,,,,,,,,,,,
{16}2,,2,,5,,,3,7,,5,,8,,,,
{16}2,,4,,3,,7,,5,6,,6,5,,7,,
{16}3,,5,,4,,6,,5,7,,7,2,,4,,
{16}3,,5,,4,,7,,5,6,,6,5,,8,,
{16}2,,4,,3,,7,,5,8,,8,1,,7,,
{16}7-5[8:1]/5,,3,,7,,2,,4,3,,3,4,,2,,
{16}4-6[8:1]/3,,1,,4,,3,,2-4[8:1],7,,7,2,,8,,
{16}7-4[8:1]/5,,8,,72,,1,,1-4[8:1],4,,4,1,,6,,
{16}7-3[8:1]/5,,1,,37,,1,,1b,1b,,5,,,6,,
||A
{16}3h[16:3],,,6,4,,6h[8:1],,5-3[16:2],,,7,5,,8,,
{16}7h[16:3],,,2>4[8:1],6,,7,,8,,1,,2,,3,,
{16}6h[16:3],,,3,5,,3h[8:1],,4-6[16:2],,,2,4,,1,,
{16}1b,,,2b,,,3b,,,4b,,,5b,,6,,
||A+
{16}7h[16:3],,,2>4[8:1],5,,2,,7h[16:3],,,5-2[8:1],8,,5,,
{16}6h[16:3],,,1>5[8:1],4,,6,,7,,8,,1,,2,,
{16}3-1[16:2],,,4,3,,5,,6-1[16:2],,,5,6,,4,,
{16}3b,,,2b,,,1b,,,8b,,,7b,,6,,
||A1
(2+2)
{16}2h[16:3],,,5,2-4[8:1],,6,6,2,,,7,5>2[8:1],,8,8,
{16}5<8[8:1],,,,5,,2,,4>2[8:1],,8,,47,,6,,
{16}7h[16:3],,,4,7-5[8:1],,3,3,7,,,2,4,,3,3,
{16}8b,,,1b,,,2b,,,3b,,,4b,,5,,
||A1
(2+2)
{16}6>4[16:2],,,3,6,,1,1,4<7[16:2],,,2,4,,3,3,
{16}8<5[16:2],,,2,8,,1,1,4,,5,,6,,7,,
{16}8-4[16:2],,,3,8,,1,1,5<8[16:2],,,2,5,,4,4,
{16}1b,,,2b,,,3b,,,4b,,,5>6[4:2],,6b,,
{16},,,,,,,,,,,,,,4,,
||B-
{16},,6,6,,4,,8,,2,6,2,,,,,
{16}7,,4,4,,8,,2,,4,8,,{32}1,2,3,4,5b,,,,
{16}2,6,,8,,4,,8,,1,5,,7,,4,,
{16}1,2,,3,,4<7[4:1],,,,,,,,,3,,
||B
||UpperDie,LowerLR,
{16}7,7,,4,,53,,53,,5,4,,7,,46,,
||UpperDie,UpperRL,
{16}2,2,,8,,75,,75,,2,8,,7,,46,,
||LowerDie,UpperDie,
{16}3,3,,5,,64,,64,,7,5,,4,,35,,
||UpperDie,LowerRL
{16}2,4,,3,,25,,25,,4,3,,6,,5,,
{16}1,1,,3,,35,,35,,2,4,,1,,53,,
{16}6,8,,1,,24,,3,5,4,6,,4,,53,,
{16}2,2,,4,,35,,35,,6,3,,3,,{16}3,4,
{16}2,6,5,7,2,1,3,7,8,6,4,,2,,8,,
{16}8,2,,4,,3-7[8:1]/5,,,8,,1b,,,,46,,
{16}2,1,,8,,75,,75,,2,1,,7,,4/6,,
{16}3,3,,8,{32},7>2[8:1],{16}6,,,,4,4,,5,,6,5,
{16}8,4,6,2,5,3,{32}7,8,{32}1,2,3,4,{32}5,6,{16}7,,8,,5,,
{16}1,2,,3,,5-2[8:1],,,1,,8b,,,,5,,
{16}1,1,,4,,3-7[8:1],,,1,1b,,,2,,4,,
{16}8,1,,6,,35,,35,,5,4,5,3,,{16}3b,4,
{16}2,6b,5,7,2b,1,3,7b,8,6,4b,7,5,1b,2,7,
{16}8b,5,4,8b,1,5,4bq5[4:1]*>5[4:1],,,,,,,,,,
{16},,48,,,,2p8[4:1]/6>1[4:1],,,,,,,,,,
{16},,56,,,,2q3[4:1]/5<2[4:1],,,,,,,,,,
{16},,45,,,,7p6[4:1]/6>7[4:1],,,,,,,,,,
{16},,43,,,,1p7[4:1]/5>8[4:1],,,,,,,,,,
{16},,65,,,,1q3[4:1]/5<2[4:1],,,,,,,,,,
{16},,48,,,,1p7[4:1]/6>8[4:1],,,,,,,,,,
{16},,65,,,,2q3[4:1]/3<2[4:1],,,,,,,,,,
{16},,,,,,6h[16:3],,,5,,,65,,54,,
{16}3h[16:3],,,4,,2,2,,5,,5,,64,,,5,
{16},,37,,5,,3/7h[16:3],,,5,,,64,,3,,
{16}4,,25,,,3,,,15,,3,,52,,,1,
{16}1,,{32}1,2,3,4,{32}5,6,7,8,1,,,,{16}5b,,1,1-5[8:1],,,5>2[8:1],,
{16}7,,8,,7<4[8:1],7,,8,8,,1,,2>5[8:1],,6,,
{16},1-5[16:3],1,,5<8[8:1],,2,,4,,2,2,1,2,8,3,
{16}7,4,6,5,7,8,6,1,5,2,4,3,5,4,6,5,
{16}7,4,8,3,1,2,8,1,7,8,6,1,7,3,8,4,
{16}6,2,4,3,5,4,6,5,7,4,6,5,7,4,8,3,
{16}8b-4[8:1],8,,4<7[8:1],,1,1,,2,,2,2,1,2,8,3,
{16}7,4,5,2,6,1,7bv4[8:1],7,,4<7[8:1],,1,1,,2,,
{16}2,1,3,8,4,7,5,6,4,5,3,4,3b<6[8:1],3,,6-2[8:1],
{16},8,8,,7,,5,2,6,3,7,4,8,3,7,2,
{16}6,1,5bv2[8:1],5,,2>5[8:1],,1,1,,8,,7,,6<1[12:4],6,
{16},,8>3[12:4],,,,2>5[12:3],,,,4,,,,1b-5[12:1],1,
{16},6,,,7b-3[8:1],7,,2,,,,1v4[16:1],,,5-8[12:1],,
{16},1b,,,,,{32}1,2,3,4,{16}5,,,,,,,,
{16},,,,,,,,,,,,,,,,
{16},,,,,,,,,,,,,,,,
{16},,,,,,,,,,,,,,,,
E
&inote_7=||For
Delay
(68)
{8},,,,,,,,,,{16},,,
(136)
{16}3/7,,,,1,,,,3/7-5[8:1],,,,71,,,,
{16}3,,,,7-5[8:1]/2,,,,87,,,,2,,4,,
{16}35,,,,7,,,,8-6[8:1]/4,,,,2/8,,,,
{16}4,,,,8-6[8:1]/3,,,,18,,,,3,,5,,
{16}64,,,,7,,,,8-6[8:1]/4,,,,8/1-5[8:1],,,,
{16}12,,,,16,,,,7h[8:1]/4h[8:1],,,2h[8:1]/5h[8:1],,,83,,
{16},,,,1b,,,,,,,,,,,,
{16}1,1,8,1,,,,,,,,,,,,,
{16}2,,2,,5,,,3,7,,5,,8,,,,
{16}2,,4,,3,,7,,5,6,,6,5,,7,,
{16}1,,3,,1,,7,,5,7,,7,1,,3,,
{16}4,,6,,4,,2,,5,6,,6,5,,8,,
{16}2,,4,,7,,5,,2,4,,4,2,,8,,
{16}75,,3,,5,,2,,4,3,,3,4,,2,,
{16}64,,8,,2,,4,,2,8,,8,2,,4,,
{16}35,,7,,35,,1,,7,4,,4,8,,1,,
{16}64,,1,,37,,1,,1b,1b,,5,,,7,,
||A
{16}3h[16:3],,,7,5,,7,,3h[16:3],,,7,5,,1,,
{16}3h[16:3],,,7,5,,8,,1,,2,,3,,4,,
{16}6h[16:3],,,2,4,,2,,6h[16:3],,,2,4,,2,,
{16}8b,,,7b,,,6b,,,5b,,,4b,,3,,
||A+
{16}2h[16:3],,,4,1,,6,,4h[16:3],,,8,5,,2,,
{16}5h[16:3],,,7,3,,5,,1,,2,,3,,4,,
{16}7h[16:3],,,5,8,,2,,4h[16:3],,,2,6,,4,,
{16}8b,,,1b,,,2b,,,3b,,,4b,,5,,
||A1
(2+2)
{16}2h[16:3],,,4,1,,6,6,4h[16:3],,,3,4,,6,6,
{16}2h[16:3],,,5,4,,7,7,1,,2,,3,,4,,
{16}7h[16:3],,,5,8,,3,3,5h[16:3],,,6,5,,3,3,
{16}1b,,,8b,,,7b,,,6b,,,5b,,4,,
||A1
(2+2)
{16}2h[16:3],,,4,8,,6,6,4h[16:3],,,1,3,,2,2,
{16}4h[16:3],,,7,4,,1,1,3,,4,,5,,6,,
{16}7h[16:3],,,5,1,,3,3,5h[16:3],,,8,6,,4,4,
{16}8b,,,1b,,,2b,,,3b,,,4b>5[4:2],,5b,,
{16},,,,,,,,,,,,,,4,,
||B-
{16}2,,6,6,,4,,8,,2,6,2,4,2,2,,
{16}7,,4,4,,8,,2,,4,8,,{32}1,2,3,4,5b,,,,
{16}2,6,,8,,4,,8,,1,5,,7,,4,,
{16}1,2,,3,,4-7[4:1],,,,,,,,,3,,
||B
{16}8,1,,4,,53,,53,,6,4,,7,,46,,
{16}2,1,,8,,75,,75,,2,8,,4,,46,,
{16}3,4,,1,,64,,64,,8,1,,5,,3,,
{16}1,3,,74,,5,,5,,3,2,1,8,,5,,
{16}1,2,,3,,35,,35,,1,7,,6,,53,,
{16}8,1,,2,,35,,2,1,8,7,,5,,64,,
{16}1,2,,3,,1,,1,,8,7,6,5,,{16}3,4,
{16}2,6,5,7,2,1,3,7,8,6,4,,2,,8,,
{16}8,2,,4,,3-7[8:1]/5,,,8,,1b,,,,46,,
{16}2,1,,8,,75,,75,,2,1,8,7,,4/6,,
{16}3,3,,8,{32},7>2[8:1],{16}6,,,,3,4,,5,,6,5,
{16}8,4,6,2,5,3,{32}7,8,{32}1,2,3,4,{32}5,6,{16}7,,8,,5,,
{16}1,2,,3,,5-2[8:1],,,1,,8b,,,,5,,
{16}1,2,,4,,3-7[8:1],,,1,1b,,,2,,4,,
{16}8,1,,3,,1,,1,,8,7,6,5,,{16}3b,4,
{16}2,6b,5,7,2b,1,3,7b,8,6,4b,7,5,1b,2,7,
{16}8b,5,4,8b,1,5,4bq5[4:1]*>5[4:1],,,,,,,,,,
{16},,48,,,,2q4[4:1]/6<3[4:1],,,,,,,,,,
{16},,56,,,,2q3[4:1]/5<2[4:1],,,,,,,,,,
{16},,45,,,,7p6[4:1]/6>7[4:1],,,,,,,,,,
{16},,43,,,,1p7[4:1]/5>8[4:1],,,,,,,,,,
{16},,65,,,,1q3[4:1]/5<2[4:1],,,,,,,,,,
{16},,48,,,,1q4[4:1]/6<3[4:1],,,,,,,,,,
{16},,65,,,,2q3[4:1]/3<2[4:1],,,,,,,,,,
{16},,45,,,,7,,,5,,7,7,,1,,
{16}3,,5,,,2,2,,5,,1,,37,,,5,
{16},,26,,5,,47,,,5,,,26,,8,,
{16}6,,84,,,3,,,15,,3,,84,,,2,
{16}2,,{32}1,2,3,4,{32}5,6,7,8,1,2,3,4,{16}5b,,1,1-5[8:1],,,5>2[12:1],,
{16}7,,8,,7<4[8:1],7,,8-3[16:3],8,,,,3<6[8:1],,6,,
{16},1-5[16:3],1,,5<8[8:1],,2,,4,,2,2,1,2,8,3,
{16}7,4,6,5,7,8,6,1,5,2,4,3,5,4,8,1,
{16}7,2,8,3,5,4,6,3,8,1,5,4,7,8,6,1,
{16}5,2,4,3,5,4,6,3,8,1,5,4,6,5,7,4,
{16}8b-4[8:1],8,,4<7[8:1],,1,1,,2,,2,2,1,2,8,3,
{16}7,4,5,2,6,1,8b-5[8:1],8,,5-2[8:1],,1,1,,8,,
{16}3,4,2,5,1,6,8,7,1,8,4,5,3b<6[8:1],3,,6-2[8:1],
{16},8,8,,7,,5,2,6,3,7,4,8,1,6,5,
{16}7,8,6b-2[8:1],6,,2>5[8:1],,1,1,,8,,7,,6<1[12:4],6,
{16},,8>3[12:4],,,,2>5[12:3],,,,4,,,,1b-5[12:1],1,
{16},6,,,7b-3[8:1],7,,2b,,,,1v3[12:1],,,5-8[12:1],,
{16},4b,,,,,{32}1,2,3,4,{16}5,,,,,,,,
{16},,,,,,,,,,,,,,,,
{16},,,,,,,,,,,,,,,,
{16},,,,,,,,,,,,,,,,
E
