&title=銀河録
&artist=はるまきごはん
&first=0
&des=銀と録
&lv_5=13+
&inote_5=(98)
{1},
{4}6h[1:1],C,5,C,
5h[1:1],C,4,C,
4h[1:1],C,3,C,
3h[4:3],C,2>7[4:1],,
{16}1bV35[16:3],,,5,5,,6,6V82[16:3],,7,,4,
{16}4-8[32:3],,,,5h[4:1],,,,8V24[16:3],,4,4,,5,,6,
{16}6-3[32:3],,4,,2-5[32:3],,,,6-3[32:3],,7,,4-1[32:3],,,,
6-3[32:3],,7,,1h[16:3],,,8,72,,3,24,,5,46,,
35,,{32}2,1,2,,
{16}8V64[16:3]/3,,,4,4,,3,3V17[16:3],,2,,5,
{16}5-1[32:3],,,,4h[4:1],,,,1V75[16:3],,5,5,,4,,3,
{16}3-6[32:3],,5,,7-4[32:3],,,,3-6[32:3],,2,,5pp8[4:1],,,,
3,,2,,1h[16:3],,,8,72,,3,24,,5,46,,
2-4[32:3]/8,,37,,
5-1[32:3],,6,,7h[4:1],,,5,5-1[32:3],,3,,2-4[32:3],,2,,
5-1[32:3],,6,,7h[4:1],,,5,5-1[32:3],,3,,2z6b[16:3],,2,,
6z2[16:3],,,,2z6b[16:3],,,,6z2[16:3],,,,2,,,,6h[8:1],,
5,,74,,3,24,3-1[32:3],24,3,,6-8[32:3],,6,,
1-5[32:3],,2,,2h[4:1],,,1,1-5[32:3],,8,,6-8[32:3],,6,,
1-5[32:3],,2,,2h[4:1],,,1,1-5[32:3],,8,,7pp4[4:1],,7,,
4,,,,3qq5[4:1],,3,,5,,,,6p4[4:1],,6,,4,,,,,,
3,24,3-1[32:2],24,3-5[32:2],,,,,,2pp1[8:3],,,,,,6pp5b[8:3],,,,,,,,,,
{16}1b>5[8:1],,5<1[8:1],7h[16:3],1,,,,4>5[32:7],,2,8h[16:3],4,,,,
1b>5[8:1],,5<1[8:1],7h[16:3],1,,,,4>5[32:7],,2,8h[16:3],4,,,,
1b>5[8:1],,5<1[8:1],7h[16:3],1,,,,4>5[32:7],,2,8h[16:3],4,,,,
1b,,73,26,5<5[4:1]/1,,37,,5>5[4:1]/1,,,,Cf,,,,
2bh[8:1],,4,3,7h[8:1],,5,6,1h[8:1],,4,3,8pp3[4:1]*qq5[4:1],,71,71,8b,,,,,,
2<7[8:1]/6,,35,,6,5,4-8[32:3],,3,,4b,,2,,13,,
8<5[8:1]/4,,26,,4,3,2-6[32:3],,1,,2b,,8,,7p5[4:1]/1q3[4:1],,26,,,,,,,,26,,
{4}8<5[2:1]/4,,,E5,4>1[2:1],,{16},,,B4,B5,,,,{4}4>1[2:1],,,E5,
4>1[2:1],,{16},,,B4,B5,,,,3-6[2:1],,,,,,,,,,,,C,,,,
3q6[2:1],,,,,,,,,,,B8,{4}B7,3pp6[2:1],,,C,
3<6[2:1],,{16},,,B8,B7,,2,4,
3-6[2:1],,,8,8,,1,1,,8,8,,1,,2,,
3q6[2:1],,,8,8,,1,1,,8,8,,1,8b,,,
3pp6[2:1],,,,,,{32}A7,D8,A8,D1,{16},,,,C,,,,3b<6[32:3],,,8b>6[16:3],,,Cf,,,,,5xw1[32:7],
5b,,,,,,,,
{16}8bV64[8:1],,4V68[8:1],2h[16:3],8,,,,
1b>5[8:1],,5>1[8:1],7h[16:3],1pp5[4:1],,,,{16}8bh[8:1],,,7h[8:1],,,64,,
35,,74,,2-5[32:3]/6-1[32:3],,48,,Cf,,,,
8/4,,2-5[8:1]/6,,5-8[8:1],,8-3[8:1],,3-6[8:1],,6q2[8:1],,2b,,5,,8<4[8:1],,4>8[8:1],,8b,,,,Cf,,,,
7bh[8:1],,5,6,2h[8:1],,4,3,8h[8:1],,5,6,1qq5[4:1]*pp5[4:1],,28,28,1b,,,,,,
7>2[8:1]/3,,64,,3,4,5>5V31V75p4[8:7],,8h[4:4],,5b,,,,,,,,,,,,,,,,2b-6[32:3]/6b,,,,2,,
7,85,,2,14,,27,,13,,
{16}8b-5[32:3]/6b,,4,3,2>6[8:1],,6<8qq5[32:9],8>2[16:1],2,,,,,,3,3,
4b-1[32:3]/2b,,8,7,6<2[8:1],,2>4qq1[32:9],4<6[16:1],6,,,,,,7,7,
8b-5[32:3]/6b,,4,3,2>6[8:1],,6<8qq5[32:9],8>2[16:1],2,,,,,,3,3,
2b/4b,,51,26,7<7[4:1]/3,,15,,7>7b[4:1]/3,,,,Cf,,,,
2bh[8:1],,1,3,7h[8:1],,8,6,4h[8:1],,1,3,5qq2[4:1]*pp8[4:1],,37,64,5b,,,,,,
51,,3<3[4:1]/7,,51,26,3qq3[16:3]/7qq7[16:3],,,,7b`A3f,,,,,,
48,,6>6[4:1]/2,,48,73,6pp5[4:1]/2pp1[4:1],,,,2b`A6f,,,,,,84,,
{64}6bh[4:1]/A2,D3,A3,D4,A4,D5,A5,D6,,D7,A7,D8,A8,D1,A1,D2,
{16}A2f,,,,7-3[32:3],,1>4[32:3],1,7<4[32:3],,1-5[32:3],8,7,,1,,
{24}8,4,6,2,,,{16}2-6[32:3],,8<5[32:3],8,2>5[32:3],,8-4[32:3],1,2,,8,,
{16}1,5,37,,8-4[32:3],,2>5[32:3],2,8<5[32:3],,2-6[32:3],1,8p4>2[8:1],,2<5[8:1],,
,,,,1>4b[32:3],,7<4b[32:3],8,1s5[4:1],,7,2,,,,,
E7,,E3,,6h[8:1],,5,6,7,,5,6,,3,4,,26,,45,,
3h[8:1],,4,3,2,,4,3,,6,5,,73,,54,,
6h[8:1],,5,6,7,,5,6,,3,4,,26,,45,,
3h[8:1],,4,3,2,1b/5b,,3b/7b,,
