&title=WHITEOUT
&artist=かねこちはる
&first=0
&des=KyuuBAi
&clock_count=4
&lv_5=14+
&inote_5=(198)
{1},
{4},
{64}1b/5b,2x/6x,3x/7x,4x/8x<3[4:15],
{16},
{8},
{1},,
{4},
{2}E5,E7,E1,
{4}1hb[1:2],
{8}E4,E7,,E2,,8h[8:19],
{1},
{8},,
{8}B7,C,,B5,,4h[8:3],
{4},
{24},37,26,15,,,2b/6b,,,,,,
{4},3bx/6bx,
{16},,3,2,1bxp4[4:3],,
{4},,,
{16}7,6,5bx,,
{8},
{4},6-2[4:1],
{16},,3,4,5bh[2:3]x,,
{8},,
{24},,A2,A1,A8,,,,,
{4},,,
{8}C,,51,51,48,48,37,37,26,26,15,15,48,84,26,26,
{16}3,4,3,4,2,5,2,5,1,6,1,6,8,7,8-4b[8:5],7-3[16:9],
{1},
{8}1-5[8:1],5V31[4:1],1,7,6,6,
{4}5,5-1[8:1],2-8[8:1]*-4[8:1]/5,2-6[16:1],2,
{8}8-3[8:1],3V58[4:1],8,2h[4:1],,,,4h[4:1],,6h[4:1],,7,
{6}8xh,1xh,2xh,
{16}3,4,5,6,8,7,6,5,8,1,2,3,6,5,4,3,1,2,3,4,8,7,6,5,2,3,4,5,7,6,5,4,
{8}8x,8,1,1,
{16}2,7,2,7,3,8,3,8,
{32}3,4,5,6,7,8,1,2/6b,
{4},
{6}34,45,56,
{8}26,2,2,2,
{32}27,E3,B3,B4,
{8}7,7-5[16:1],7,71,1,1,1,
{32}17,B1,C,B5,
{8}7,7,7,
{6}6`5,5`4,4`3,
{32}B3,C,B7,,
{8}5,5,5,
{16}3,4,3,,
{16}5,6,7,8,12,3,4,5,6,7,8,1,
{8}26,26,37,37,48,48,15,15,48,48,37,37,26,26,15,15,
{16}1,5,1,5,3,4,3,4,1,8,1,8,5,6,5,6,
{16}4,3,2,1,7,6,5,4,1,2,3,4,56,7,8,1,
{1}2>2[4:13]/3,,B3`B4,
{4},,,
{16}4,5,4,5,
{4}3p5[2:1],,,
{16},,,6xh,
{4}5xh[8:5],
{8}4,3,,2p4>1[8:9],,C,
{4},,,
{8},
{16}6,5,
{4}4h[4:1],
{8},
{4}7h[4:1],6h[4:1],
{8}5,4,3,A4,A3,,,5,6,A4,A7,,,1,2,,3`4,,65,65,65,
{16}3`4h[16:3],,,5h[16:3],,,
{8}6h[8:1],
{16}7h[16:3],,,1h[16:3],,,4,,
{4},
{16}48,37,26,15,4/8h[4:3],,,,
{8}6-3[8:1],5,6,,6-3[8:1],5,6/8-3-5[4:1],,8,6-3[8:1]*-8[8:1],,6qq2[8:7],,6
,
{4},,,
{16},,1,8,7,6,5,4,3,2,1,8,74,5,6,7,8,1,2,3,4/6,,1-5[16:1]/2-6[16:1],,,,1b/2b,,
{4},
{8}3/5,7-3[16:1]/8-4[16:1],,7b/8b,
{4},
{8}4xb/5xb,1xb-4[16:1]/8xb-5[16:1],,1b/8b,,3xb/6xb,3xb/6xb,
{16}1xbh/8xbh,2xbh/7xbh,3xbh/6xbh[8:1],,,5h[16:3],,,4h[8:1],,3h[2:1],,,2,,,1h[8:2],,
{32}E4f,B4,B5,E6,
{8},,,
{16}8,7,6,5,2,3,4,5,8,1,2,3,1,2,3,4,7,6,5,4,1,2,3,4,8,7,6,5,7,6,5,4,8,7,6,5,1,2,3,4,6,5,4,3,2,1,8,7,62,3,4,5,6,7,8,1,27,6,5,4,3,2,1,8,
{8}7-2[8:1],2V47[4:1],7,1,1,2,3qq7[1:1],3,3,,
{4},,
{8},,6,6,5,5,48,48,26,26,
{16}3,7,3,7,
{32}3,4,5,6,7,8,1,2,37,6,5,4,3,2,1,8,
{4}7b-3[16:1]/3b-7[16:1],,
{8}B1/B2/E2,,4,4,B1/B2/E2,,6,5,B1/B2/E2,5,7,7,B1/B2/E2,,5,4,B8/B7/E8,3,4,3,B8/B7/E8,3,5,5,B8/B7/E8,5,4,4,B8/B7/E8,4,37,37,26,62,15,51,84,48,26,26,37,37,48,48,15,15,
{16}2,6,1,5,8,4,7,3,6,2,5,1,4,8,3,
{32}7x,8x,1x,2x,3x,4x,5x,6x,7x,8x,1x,2x,3x,4x,5x,6x,7x,8x,1x,2x,3x,4x,5x,6x,7x,8x,1x,2x,3x,4x,5x,6x,7x,8x,
{1}1xpp8[4:11]/Cf,7qq8b[4:7],,,
{8}34,2,56,7,24,1,57,8,34,12,78,56,
{16}3,4,3,4,
{4}3b,
{16}7,4,6,5,6,5,6,5,6,5,6,4,7,3,8,2,1,3,8,2,1,3,8,2,1,4,7,2,1,2,1,2,{32}8,7,6,5,4,3,2,1,8,7,6,5,4,3,2,1,8,7,6,5,4,3,2,1,8,7,6,5,4,3,2,1,
{32}E3,E4,E5,E6,E7,E8,E1,E2,E3,E4,E5,E6,E7,E8,E1,E2,E3,E4,E5,E6,E7,E8,E1,E2,E3,E4,E5,E6,E7,E8,E1,E2,
{4}Cf,
{8}2b/6b,
{16}3,5,4h[16:3],,,6h[16:5],,,8,1,2h[4:1],,,,4h[4:1],,5h[8:1],,,6,7,8,5,6,7,8,15,,,,37,,6,4,5h[16:3],,,4h[16:3],,,3h[8:1],,1,,2x/6x,3x/7x,4x/8x,,,,15,,4x/8x,3x/7x,2x/6x,,,,15,,,,37,,6,4,6,,3h[16:1],5,,2h[16:1],4,,
{8}1V35[4:1],1,6,6,8V64[4:1],8,2,2,2h[4:1],,6,6h[4:1],,5,4,4h[8:3],
{16}3,2,1,8,,3,2,1,3,2,1,8,4,3,2,1,8b/4b,,,,26,,3,5,4h[16:3],,,7h[16:3],,,1,2,
{8}3h[4:1],,,8,
{16}7,1,7,1,6,2,5,3,4h[16:5],,,,,,15,26,37,,,84,,,26,,48,,15,26,
{4}37,
{16}4,3,2,1,4,3,2,1,
{8}8b/4b,84,73,73,62,62,51,51,
{16}3,4,3,4,1,8,1,8,
{32}2,3,4,5,6,7,8,1,26,5,4,3,2,1,8,7,
{4}2b-6[16:1]/6b-2[16:1],
{32},Cf,,,
{8},,
{16}4,,3,,8-4[8:1],8,,,8,,2,,3>8[4:1],3,,,
{8}37,6,5,4,1,2,
{16}5-1[8:1],5,,,5,,3,,4,,51,15,,37,,26,,15,26,37,48,,1h[8:1]/5h[8:1],,,48,
{4}3qq4[4:1]/7qq8[4:1],3b/7b,,
{16}1,2,1,2,
{8}3/8p4[8:1],8,2p6[8:1],2,4<8[8:1],4,1,1,
{16}3,6,4,5,8,7,1,6,2,1,3,8,2,1,2,1,
{32}2bx,3,4,5,6,7,8,1,2bx,3,4,5,6,7,8,1,2/5b,4,3,2,1b,8,7,6,5b,4,3,2,1b,8,7,6,
{1}5b>3>2<1<8<7<6qq7b[4:15]`1>2>3<4<5<6<7>8pp7[4:15],,,,
E
