&title=モンダイナイトリッパー!(code:MK ver)
&artist=sasakure.UK
&first=0
&des=アミノハバキリせんせえ@トラベル計画316
&wholebpm=180
&clock_count=4
&lv_6=14
&des_6=アミノハバキリせんせえ@トラベル計画316
&inote_6=(180)
{16},,,,
,,,,
,,,,
,,,,
{16},,,,
,,,,
4,5,3,6,
2,7,1,8,
||
7/4
{16}2b,,3,,
4,,6,,
5,,4,,
2,,3,,
4,,6,,
5-8[16:2],,4,,
,,,,
{16}7b,,6,,
5,,3,,
4,,5,,
7,,6,,
5,,3,,
4qq4[16:4],,5,,
,,,,
||
3/4
{16}8b,,7,,
6,,1,,
2,,3,,
{16}7b,,6,,
5,,2,,
3,,4,,
{16}6b,,5,,
4,,3,,
4,,5,,
||
7/4
{16}6^3[16:22],,,,
,,,,
,,,,
,,,,
1h[48:1],,,,
,,,,
,,,,
||
4/4
(180)
{16}2h[16:10]/4h[16:8],,,,
,,,,
,,,,
,,,,
{16}3h[16:10]/4h[16:6],,,,
,,,,
,,,,
,,,,
{16}1h[16:10]/5,,,,
,,,,
,,8h[16:6],,
,,2,,
{16}3,,3h[16:4],,
,,4h[16:4],,
,,5,,
,,,,
{16}1h[16:10]/7h[16:12],,,,
,,,,
,,,,
,,,,
{16}6h[16:10]/5h[16:6],,,,
,,,,
,,,,
,,,,
{16}7h[16:8]/3,,,,
,,,,
4,6,4,6,
4,6,3b-5[16:2],,
{16},,1b^3[16:2],,
,,6b-1[8:1]*-8[8:1],,
,,,,
,,,,
{16}2h[16:2]/4,,,,
5h[16:2]/6,,,,
2h[16:2]/4,,,,
5h[16:2]/6,,,,
{16}3h[16:2]/4,,,,
5h[16:2]/7,,,,
3h[16:2]/4,,,,
5h[16:2]/7,,,,
{16}3h[16:2]/1,,,,
8h[16:2]/7,,,,
3h[16:2]/1,,,,
8h[16:2]/7,,,,
{16}2h[16:2]/1,,,,
8h[16:2]/6,,,,
2h[16:2]/1,,,,
8h[16:2]/6,,,,
{16}3h[16:2]/4-2[16:2],,,,
5h[16:2],,,,
3h[16:2]/4-1[16:2],,,,
6h[16:2],,,,
{16}3h[16:2]/4-8[16:2],,,,
7h[16:2],,,,
3h[16:2]/4h[16:2],,,,
67,,8b-3[16:2]/5b-2[16:2],,
{16},,,,
,,1b-6[16:2]/4b-7[16:2],,
,,,,
,,8bqq4[16:10],,
{16},,,,
,,3-1[16:2],,
3,,,,
,,,,
{16}6,5,7,,
2,4,3,,
6,5,7,,
2,4,3,,
{16}6,5,4,3,
7,6,5,4,
8-4[16:2],7,6,5,
,,,,
{16}3h[16:2],,4h[16:2],,
5h[16:2],,6,,
3h[16:2],,4h[16:2],,
5,,6,,
{16}3h[16:2],,4,,
5,,6,,
2-7[16:2],7-2[16:1],2,7,
,,,,
{16}5-7[16:2],,6,,
4-2[16:2],,3,,
5-8[16:2],,6,,
4-1[16:2],,3,,
{16}5,,7,,
4,,2,,
87,,,54,
,,21,,
{16}3,4,3,4,
2,5,2,5,
1,6,1,6,
8,7,8,7,
{32}1,2,3,4,5,6,7,8,
1q7[24:4],2,3,4,5q3[24:4],6,7,8,
{16},,,,
,,,,
{16}2-7[16:2],,2,,
3-6[16:2],,3,,
2-7[16:2],,2,,
5,,5<1[24:4],,
{16},,3,,
4,,5qq4[24:5],,
,,8,,
8,,,,
{16}5-3[16:2]/3-8[16:2],,,,
5pp4[16:6]/3,,,,
1,,1,,
,,2-5[16:2],,
{16},,5qq1[16:6],,
7,,8-6[16:2],,
,,,,
,,,,
{16}4^7[16:2],,4,,
3v8[16:2],,3,,
4^7[16:2],,4,,
2,,2pp4[24:4],,
{16},,7,,
8,,1<5[24:4],,
,,3,,
3,,,,
{16}18,,7,5,
7,,2,4,
2,,6,,
7,,8^3[16:2]/4,,
{16},,2-6[16:2],,
,,8-4[16:2]/2-4[16:2],,
,,8b/2b,,
,,,,
{16}6^1[16:2],,6,,
5^2[16:2],,5,,
6^1[16:2],,6,,
4,,4V28[24:5],,
{16},,6,,
5,,4pp5[24:5],,
,,1,,
1,,,,
{16}4-6[16:2]/6^1[16:2],,,,
4qq5[16:6]/6,,,,
8,,8,,
,,6,,
{16}4,,2,,
8,,2v4[24:4]/6pp8[24:4],,
,,,,
,,,,
{16}7/5-8[16:2],,3b,,
,,1,,
2,,37,,
6,,5/1^4[16:2],,
{16},,7,,
8,,1-5[16:2]/5,,
,,3,,
3,,,,
{16}64,,7,,
35,,2,,
8<4[16:2]/4q8[16:2],,,,
,,,,
{16}1,2,3,4,
1,8,7,6,
4,3,2,1,
7,6,5,4,
{16}2,6,2,6,
3,7,3,7,
4,8,3,7,
4,8,3qq8[16:22],7qq4[16:21],
{16}4b,,,,
,,,,
,,,,
,,,,
{16},,,,
,,,,
,,,,
,,,,
{16}3,,5h[16:1]/6h[16:2],,
,,4h[16:2]/2h[16:1],,
,,6h[16:2]/8h[16:1],,
,,2V41[16:4],,
{16},,1-5[16:2],,
5^8[16:2],,8>4[16:3],,
,,,,
,,,,
{16}36,,7,1,
7,,2,8,
2,,,7h[16:3]/1,
,,3,5,
{16}4h[16:2],,8,2,
6h[16:2],,5,7,
{24}4b,3,2,18,7,6,
{16}5,,,,
{16}3,5,3,5,
1,7,1,7,
2,3,4,7,
6pp4[16:12],5,1bqq4[16:10],,
{16},,,,
,,,,
,,,,
,,,,
{16}25,,3,4,
3,,3,,
3,4,3,,
62,,5,4,
{16}5,,5,,
5,4,5,,
72,,6,5,
6,,6,,
{16}6,5,6,,
37,,4,5,
4,,4,,
3,7,2-6[16:34],8,
{16}1b,,,,
,,,,
,,,,
,,,,
{16},,,,
,,,,
,,,,
,,,,
{16},,,,
(160)
{16},,,,
,,,,
,,,,
,,,,
{16},,,,
,,,,
,,,,
,,,,
{16},,,,
,,,,
,,,,
,,,,
{16},,,,
,,,,
,,,,
,,,,
{16}8-5[16:13],,,,
,,,,
4,,,,
,,,,
{16}1-4[16:12],,,,
,,,,
5,,,,
,,,,
{16}8-5[16:11],,,,
,,,,
4,,,,
,,,,
{16}4q5[16:10],,,,
,,,,
,,,,
,,,,
{16}3qq6[16:9],,,,
,,,,
,,,,
,,,,
(180)
{16}8,7,6,5,
1,2,3,4,
7,6,2,3,
8,7,3,4,
{16}1-6[16:2],,1,,
5-2[16:2],,5,,
1-6[16:2],,1,,
3,,3-7[16:2],,
{16},,6,,
5,,4V61[24:5],,
,,1,,
3,,,,
{16}8-5[16:2]/5-2[16:2],,,,
8/5qq6[16:6],,,,
1,,1,,
,,8>4[24:4],,
{16},,4qq8[16:6],,
6,,8^5[16:2],,
,,,,
,,,,
{16}2^5[16:2],,2,,
6v1[16:2],,6,,
2^5[16:2],,2,,
8,,8^5[24:3],,
{16},,4,,
3,,2V46[24:4],,
,,6,,
8,,,,
{16}27,,3,8,
3,,6,1,
6,,4,,
5,,3/6^1[16:2],,
{48},,,,,,2b,3,4,5,,,
{16},,3^8[16:2],,
{48},,,,,,7b,6,5,4,,,
{16},,,,
{16}8^3[16:2],,8,,
4^7[16:2],,4,,
8^3[16:2],,8,,
5,,5-1[16:2],,
{16},,3,,
4,,5V38[24:5],,
,,8,,
6,,,,
{16}1^4[16:2]/4^7[16:2],,,,
1/4pp3[16:6],,,,
8,,8,,
,,1,,
{16}7,,5,,
3,,4pp4[8:2]*qq4[8:2]/1,,
,,,,
,,,,
{16}1-7[16:2],,1,,
3-5[16:2],,3,,
6,,6<3[16:4],,
,,3>6[32:7],,
{16},,5w1[16:2],,
,,,,
,,7/3,,
7/3,,,,
{16}64,,7,,
53,,2,,
7h[16:4],,5,,
4,,3b/6b<3[8:3]*q3[8:3],,
{16},,,,
,,,,
,,4,,
5,,6,,
{16}34,,1,,
56,,8,,
2/3b,,,1b/8,
,,7/6b,,
{16},,4,7,
5,6,4,7,
3,8,2,1,
3,8,2,1,
{16}3,7,3,7,
4,6,4,6,
{24}1,2,3,7,6,5,
2,3,4,8,7,6,
{16}1bs5[16:10],,,,
,,,,
,,,,
,,,,
||
7/4
{16}7b,,6,,
5,,3,,
4,,5,,
7,,6,,
5,,3,,
4-1[16:2],,5,,
,,,,
{16}2b,,3,,
4,,6,,
5,,4,,
2,,3,,
4,,6,,
5pp5[16:4],,4,,
,,,,
||
3/4
{16}1b,,2,,
3,,8,,
7,,6,,
{16}2b,,3,,
4,,7,,
6,,5,,
{16}3b,,4,,
5,,6,,
5,,4,,
||
3/4
{16}2b,1,2,1,
2,,7,8,
7,8,7,,
{16}3b,1,3,1,
3,,6,8,
6,8,6,,
{16}2b,4,2,4,
2,5,2,6,
2,7,2,8,
{16}3b,4,3,4,
3,5,3,6,
3,7z3[16:35],3s7[16:34],8,
{16}4b,E
