&title=無機質世界に彩を
&artist=MisomyL
&first=0
&des=191519
&lv_6=14
&inote_6=(155)
{1},,,,,,,,,,,,
{8},,,,5s1[16:3],,,,
{16}3,,,3h[16:16],,,,,4,,,,,,,,
{16}4,,,4h[16:16],,,,,,,,,5,,5,,
{16}5,,,5h[16:16],,,,,6,,,,6,,6h[16:1],,
{16}6,,,6h[16:13],,,,,5,,,,5-1[8:1],,5,,
{16}5,,,,2,8,2,8,3,7,3,7,4,6,4,6,
{16}3,5,2,4,1,5,8,6,1,7,4,5,2s6[31#20:6]*p3[31#20:6],8,5,7,
{1},,
{16},,,,,,,,,,,,,,8,8,
{16}3h[16:2],1,,4h[16:2],2,,3h[16:2],1,,4h[16:2],2,,8,,,,
{16}6,5,6,4,5,4,6,5,6-2[8:1],4,5,4,,,,,
{16}3h[16:2],1,,4h[16:2],2,,3h[16:2],1,,4h[16:2],2,,8,,,,
{16}7,8,7,1,8,1,7,8,7-3[8:1],1,8,1,,,,,
{16}1,2,3,4,8,7,6,5,8,1,2,3,8,,,,
{16}7,5,6,4,5,4,7,5,6-3[8:1],4,5,4,,,,,
{16}1,2,3,4,8,7,6,5,8,1,2,3,8,,,,
{16}6,8,7,1,8,1,6,8,7-4[8:1],1,8,1,,,,,
{32}1,2,3h[64:8],,,,1,2,3h[64:7],,,,1,2,3h[64:6],,,,1,2,3h[64:5],,,,8,,,,,,,,
{16}7,5,6,3,5,4,7,5,6-8[12:1],3,5,4,,,,,
{32}1,2,3h[64:4],,,,1,2,3h[64:3],,,,1,2,3h[64:2],,,,1,2,3h[64:1],,,,8,,,,,,,,
{16}6,8,7,2,8,1,6,8,7-3[8:1]*q4[8:1],,,,,,,,
{16}1-3[12:1],,8,8,,7-4[8:1],,,4-8[8:1],,3,3,,2,,,
{16}3-8[8:1],,7,7,,6-1[8:1],,,1-7[8:1],,2,2,,3,,,
{16}2-5[8:1],,8,8,,7-4[8:1],,,4-6[12:1],,3,3,,2,,,
{16}3-1[12:1],,7,7,,8-4[8:1],,,1,,2,2,,3,,,
{16}8<6[12:1],,1,1,,2>5[8:1],,,5-1[8:1],,6,6,,7,,,
{16}6<1[8:1],,2,2,,3-8[8:1],,,8-2[8:1],,7,7,,6,,,
{16}7<4[8:1],,1,1,,2-5[8:1],,,5-3[12:1],,6,6,,7,,,
{16}3,1,2,4,1,5,8,6,{24}1,2,3,4,5,6,{32}8,1,2,3,4,5,6,7,
{8}1w5[4:31],,,,,,,,
{1},,,,,,,,,
{8},,,,,6?z2b[2.1985815602836883#282:1],,,
{8},,,,,,,,
{8},,4?-6[206.6666666666667#12:1],,,,,,
{8},,,,,,,,
{8},,8?-6[206.6666666666667#12:1],,,,,,
{8},,,,,,,,
{8},,5?-7[206.6666666666667#12:1],,,,,,
{8},,,,,,,,
{8},,8?-5[206.6666666666667#8:1],,,,,,
{8},,,,,,,,
{8},,6?-1[206.6666666666667#8:1],,,,,,
{8},,5?-1[206.6666666666667#8:1],,,,,,
{8},,1?-5[206.6666666666667#8:1],,,,,,
{8},,4?-8[206.6666666666667#8:1],,,,,,
{8},,8?-4[206.6666666666667#8:1],,,,,,
{8},,4?-1[206.6666666666667#8:1],,,,,,
{8},,1?-4[206.6666666666667#8:1],,,,,,
{8},,8?-3[206.6666666666667#8:1],,,,,,
{8},,,,{32}8s4[16:3],7,6,5,4,3,2z6[16:3],,,,,,,,,,
{16},,,,
(155.00001)
{16}2,4,3,7,5,6,1,3,2,8,6,7,1,8,2,7,
{48}1h[4:1],,,,,,,,,,,,,28,37,46,5,,,,,,,,{16}1-5[8:1],8,2,7,1,,8,,
{16}3,5,4,6,2,8,3,7,46,,7,8,,5,64,,
{16}1,8,2,4,3,,21,,7,8,5,4,6,,78,,
{16}16,2,3,45,6,7,82,3,4,56,7,8,12,3,45,,
{16}1,7,2,7,3,6,4,6,5,6,4,7,1,8,2,7,
{16}4,5,3,6,2,7,1,8,2,4,3,5,4,6,5,7,
{16}2,8,1,4,3,3,5,4,6,8,7,5,8,8,6,7,
{16}5,8,4,8,3,8,2,8,17,,3,4,,1,28,,
{8}3>5[2:1]/7>5[2:1],,,,,,,,
{16}3,4,3,7,5,6,1,4,2,8,4,6,1,5,3,7,
{12},,7-5[16:1],,4-7[12:1],,8-4[12:1],,3,,1,,
{16}1,7,2,8,3,7,1,6,2,8,4,6,3,3,7,7,
{16}2,1,2,8,1,8,2,1,2,8,1,8,2,7,3,6,
{16}4,5,4,7,5,6,4,5,4,7,5,6,4,6,3,5,
{16}2,8,1,6,8,7,2,8,1,6,8,7,2,1,3,8,
{24}4,7,4,7,4,7,{32}4,3,2,1,8,7,6,5,8h,7h,6h,5h,8h,7h,6h,5h,8h,7h,6h,5h,8h,7h,6h,5h,
{1}8w4[4:41],
