&title=V.I.P MONSTER
&artist=RAISE A SUILEN
&first=0
&des=SaNO!!
&des_5=
&lv_5=13
&inote_5=(172){4},,,,,,,,4xh[8:1],
{16}5,5,{8}4,{4}5xh[8:1],{16}4,4,{8}5,
{4}4xh[8:1],{16}5,5,{8}4h[8:1],{16}5x,4,5,4,{8}5,4,
{4}5xh[8:1],{16}4,4,{8}5,{4}4xh[8:1],{16}5,5,{8}4,
{4}5xh[8:1],{16}4,4,5,5,3,3,6,6,2,2,7,7,
{4}3xh[8:1]/Cf,3h[8:1],7/3xh[8:1],6/3xh[8:1],
2h[8:1],2h[8:1],8/2xh[8:1],6/2xh[8:1],
3h[8:1],3h[8:1],5/3xh[8:1],6/3xh[8:1],
{8}3/7,6,{4}5/3>1[8:1],{8}5xp8[8:1],6,{4}5x/2,
4/6h[8:1],6h[8:1],3/6xh[8:1],2/6xh[8:1],
7h[8:1],7h[8:1],1/7xh[8:1],2/7xh[8:1],
6h[8:1],6h[8:1],4/6xh[8:1],3/6xh[8:1],
{8}6/2,3,{4}4/6<8[8:1],{8}4xq1[8:1],3x,4x/7x,6x,
,1,2,3,4/6h[4:1],5,3h[4:1],4<7[4:1],
,3,2,1,8>3[4:1],7,6,5h[8:3],
,4,3,2,1/5h[8:3],2p8[4:1],,2,
,E7/B6/B7,,8/B4/E5/B5,,2/B7/B8/E8,,B6/E7/B7/B3/B2/E3/Cf,
,8h[4:1],,5,7/3,4,2/6,3,
1,1<6[8:1]/2>5[8:1],,1/2,,4/7,5/8,2-6[8:1],
7,6,,8p4[8:1],4>7[4:1],8,{4}2h[8:1],
{8},B4/B3/E4,,2/E6/B6/B5,,7/B1/E2/B2,,E5/B5/B4/B8/E1/B1/Cf,
7x,6x,5x,1x,2x,3x,6x,5x,
4x<7[8:1],5,4,3,2h[4:1],8,,6h[4:1]/3v1[8:1],
,,,2h[4:1]/6V48[8:1],,,,1h[4:1],
,8,6,4,2,1q5[8:1],8,1/7,
,7,5,3,5/2,6,7p4[4:1],3,
7/4,{16},,,,3,3,{8}4v7>1[4:1],2,4,2,
{4}2h[4:1],{8}1x,3,4x/8,5xh[8:1]/7h[8:1],,6,
5/4x,3x/6,{16}5x,5,4,6,4x,5,3,6,4x,5,4,5,
{8}3xh[4:1]/6bx<3[1:1],,,4h[4:1],,,{4}5h[8:3],
{8},,,6,5,4,{4}3h[4:1],
{8}E8,E7,{4}4h[2:1]/E6/B5,{8},,7<8[4:3],7x,
,,,,,,,,{4}2x<5[4:3],
2,2,2,
{8}2x,6,2,5,2,4,2,5,
2x,6,{4}2/7h[4:1],2,1-5[8:1]/5-1[8:1],
Cf,{8}2x/8bx,4,7/5x,6,3x/7,2x/8-4[8:1],
1x,8/3x,,3,2bx/4,8,7x/1,6p1[8:1],
1x,2/6x,,2x/4,3,7/5x,6,4x/5,
4x/3,6/5x,4x/2,5/7,3bx/1V35<1[16:5],6bx,{4}1b/Cf,
,Cf,{8}6x/1bx,3,8x/4,7x/3v5p1[16:3],
5,8x,{16},,8x,1x,7-3[8:1],3,{8}6,7x/2,1x,
{16}2x,4,2x,4,{4}1bx/5x,{16}7x,5,7x,5,{4}4x/8bx,
{16}1bxh,6,4bxh,5,2bx<2[4:1],4,6bx,5,{4}2bxw6b[8:1],A2f,
{8},2x-8[8:1],7-3V58b[4:1],2,7,1x-6b[8:1]*-4[8:1],,1b,
,8,6x/5-2[8:1],4,5/7-3[8:1],8x,7/1-5-7-1-3b[8:3],8x,
1/4,,,6x,{4}6h[2:1],1-6b[8:1],
{8}1x-3[8:1],5-7b[8:1],1,5x,4xh[8:1],{16}8,5,6,7,{8}8x-3-5-2b[2:1],
,4,5x,6,7x,8,1x,1-6[8:1],
4x,1,{4}5xqq3>1b[4:1],{8}5,6,8,7x-4[8:1]*-3[8:1],
,7bx,,3x-1[8:1]*-7[8:1],,3bx,,E7/B6/B5/B4/B3/E3/E5f,
,D1/E1/E5/D5/Cf,,E8/B7/B6/E6/B8/B1/B2/B3/Cfh[8:3],,,{4}1b,
{8},7-1b[8:1],2-6V41[4:1],7,2,8-3b[8:1]*-5b[8:1],,8b,
,3x,2x/1-6[8:1],8,1/3-7[8:1],4x,3x/5-7v4V68b[8:3],4,
5x/8x,{16},,,,1,2,{4}3h[4:1],5-2b[8:1],
{8}5x-7b[8:1],1-3b[8:1],5,1x,8xh[8:1],{16}4x,7x,6x,5x,{8}4bpp1[8:5],
,4,3,2x,1x,2x,3x,4-2[8:1],
8x-6[8:1],4,8xqq5b[8:3],1,8x,1x,2x,3x-5[8:1]*-7[8:1],
,3bx,,7x-1[8:1]*-4[8:1],,7bx,,E8/B7/E7/A6/E2/B2/E3/A3/Cf,
,E8/B1/E2/B8/E5/Cfh[8:5],{4},,{64}B6/B7,B3/B2,{32}E3/E7,,,,,,,{4}1x/7h[8:1],
7h[8:1],{8}1/7xh[8:1],2,{4}3/7xh[8:1],
8xh[8:1],8h[8:1],{8}4/8xh[8:1],3,{4}2/8xh[8:1],
7xh[8:1],7h[8:1],{8}1/7xh[8:1],2,{4}3/7xh[8:1],
{8}2/6,7,{4}8/2-6[8:1],{8}8bx<5[8:1],7,8/3bx,2x,
{4}1xh[8:1],1h[8:1],{8}8/1xh[8:1],6,{4}7/1xh[8:1],
8xh[8:1],8h[8:1],{8}4/8xh[8:1],2,{4}3/8xh[8:1],
1xh[8:1],1h[8:1],{8}7/1xh[8:1],4,{4}5/1xh[8:1],
{8}1x/6,{16}7,2,8x,1x,7x,2,6x,3,{8}7,4bx/8-5b[8:1]*z4b[8:1],3,
E
