&title=深夜0時
&artist=ヒトリエ
&first=0
&des=YYlY
&clock_count=4
&lv_5=13+
&inote_5=(182)
{1},,
{16}3,4,3,4,3,4,2-5[8:1],,,,6,,,,,,
6,5,6,5,6,5,7-4[8:1],,,,3,,,,,,
2,4,2,4,2,4,1-5[8:1],,,,7,,,,,,
7,5,7,5,7,5,8-4[8:1],,,,2,,,,,,
{16}3,5,3,5,3,5,2-5[8:1],,,,5,,6,,,,
{16}7,8,7,8,7,8,6-3[8:1],,,,8,,1,,,,
{16}2,4,2,4,2,4,1-5[8:1],,,,5,,6,,,,
{16}7,4,7,4,7,4,8-4[8:1],,,,4,,3,,,,
{16}2,5,2,5,2,5,3>8[8:1],,,,8,,7,,,,
{16}6,1,6,1,6,1,5<8[8:1],,,,1,,2,,,,
{16}3,7,3,7,3,7,4-8[8:1],,,,7,,6,,,,
{16}5,2,5,2,5,2,6>8[16:4],,,,3/6,,,,,,
{8}3V51[8:3],,6,6,,8,8,,7V51[8:3],,4,4,,3,3,,
2V48[8:3],,1,1,,7,7,,6<4[8:3],,1,1h[8:2],,,1,,
5V73[8:3],,4,4,,1,1,,2V48[8:3],,8,8,,7,7,,
6V84[8:3],,5,5,,3,3,,1pp4[8:4],,5,5h[8:2],,,5,,
{16}6,5,6,5,6,5,7-4[8:1],,,,3,,3,,,,
{16}2,4,2,4,2,4,1-5[8:1],,,,6,,6,,,,
{16}7,8,7,8,7,8,6-1[8:1],,,,2,,2,,,,
{16}3,8,3,8,3,8,4-8[8:1],,,,7,,7,,,,
{16}6,2,6,2,6,2,5<8[8:1],,,,3,,3,,,,
2,1,2,1,2,1,3<6[8:1],,,,8,,8,,,,
7,1,7,1,7,1,8<5[8:1],,,,2,,2,,,,
3,4,3,4,3,4,2h[8:2],,,,8,,8/1,,,,
{8}7-5[8:1],,7-3[8:1]/4,,2/7,,1,1>5[4:1],,5v2[16:3],6,7,,8,1,7,
{8}2-4[8:1],,2-6[8:1]/5,,7/2,,8,8<4[4:1],,4v7[16:3],3,2,,1,8,2,
{8}7-4[8:1],,7-1[8:1]/2,,3/7,,2,2>6[4:1],,6p1[16:3],7,8,,7,2,6,
{8}3-5[8:1],,7-3[8:1]/3,,1/7,,2/5,2/5,,3,4/5,6,
{32}2,3,4,5,6,7,8,1,
{4}2/6,
{8}7-5[8:1],,4-8[8:1]/7,,3/4b,,2,2>5[8:1],,6,7-4[8:1],8,1>4[8:1]*<6[8:1]/7,,1,,
{8}5-8[8:1],,5qq5[4:1],,5b,,7,7-4[8:1],,4,3<1[4:1],,2h[4:1],,,,
{8}3-1[8:1],,8-4[8:1]/3,,7/8b,,6,6>3[8:1],,3,2-6[8:1],1,8-5[8:1]*-3[8:1]/2,,8,,
{8}1>5[16:4],,5v3[16:3],6,7,,8,8>3[8:1],,4,4-1[8:1],,6h[4:1],,
{16}8,7,8,7,
{8}1-3[8:1],5,1-7[8:1],5,1>3[8:1],5,1<7[8:1],5,1-3[8:1],5,1-7[8:1],5,1-5[8:1],5,1,,
{16}8-4[8:1],,2-5[8:1],,8,,2,,7-4[8:1],,4-8[8:1],,7,,3h[4:1],,,,1,2,1,,3/8,,4-1[8:1]/7-4[8:1],,,,4/7,,,,
{8}2-5[8:1],5>7[4:1],2,7,6h[4:1],,5,4h[4:1]/5,,7-4[8:1],4<2[4:1],7,2,,4b,,
{16}7h[8:1],,4,6,1h[8:1],,4,2,7-4[8:1],,3-8[8:1],,7,,3,,
{8},2/6,3/7,4/8,5>2[8:1]/1<6[8:1],,,,
{8}1-5[8:1],5-1[8:1],1,6V48[16:3],,
8,1,2V48[16:3],,5,6,7V51[16:3],,1,2,3V15[16:3],,6,7,8V26[16:3],,2,3,4V62[16:3],,7,8,1>7[4:1],,,,,
{8}2V84[16:3],8,2,7V15[16:3],,5,4,3V51[16:3],,8,7,6V48[16:3],,4,3,2V84[16:3],,7,6,5V37[16:3],,3,2,1V73[16:3],,6,5,4h[16:4],,
{16}2,4,2,4,2,4,
{16}1-5[8:1],,,,1/7-5[8:1],,,,4,,3-1[8:1],,,,8,,7-5[8:1],,,,4>7[8:2],,3h[8:3],,,,,,,,,,
{16}6-2[8:1],,,,6/4-2[8:1],,,,1,,8-6[8:1],,,,5,,4-2[8:1],,,,1<4[8:2],,8h[8:3],,,,,,,,,,
{16}2-6[8:1],,,,2/8-5[8:1],,,,4,,3-8[8:1],,,,7,,6-3[8:1],,,,2<5[8:2],,2h[8:3],,,,,,,,,,
{16}7-4[8:1],,,,7/3-8[8:1],,,,5,,6-3[8:1],,,,1,,2-6[8:1],,,,7>4[8:2],,7h[8:3],,,,,,,,,,
{8}6h[4:7],,,,,,,,,,,,,,,,
{8}2h[4:5],,,,,,,4h[128:1],,,5,3,4,3,4,5,
{8}6h[4:2],,,,7h[4:1],,8h[4:1],,1h[8:3],,,4h[8:3],,,3h[8:1],4h[8:1],
{8}2h[4:2],,,,4,,3,4/2,,7,5,6,3,4,2,,
{8}8-6[8:1],,8-4[8:1]/3,,2/8,,1,1V35[4:1],,5-1[16:3],6,7,,8,7,6,
{8}2-4[8:1],,2-6[8:1]/5,,7/2,,8,8V64[4:1],,4-8[16:3],3,2,,1,2,3,
{8}6-4[8:1],,1/6-8[8:1],,3/6,,2,2p4[4:1],,4>1[16:3],5,6,,7,6,5,
{8}1-5[8:1],,1/7-4[8:1]*-3[8:1],,7,,2,2h[4:1],,1,8,7,
{8}4h[128:1]/6,5/3h[128:1],2h[128:1]/4,1h[8:77]/3b>4[8:13],
{1},,
{1}3h[4:29],,,,,,,
{4},,,
{32}2b,3,4,5,6,7,8,1,
{8}2-5[8:1]/6,,2/5qq6[8:2],,7b,,8,1V75[16:3],,5,4-8[8:1],3,4/2-5[8:1]*-7[8:1],,2,,
{8}8<5[8:1],,8/4q8[8:1],,2/4b,,1,1q5[8:1],,6,7-5[8:1]*pp3[8:3],,7,,,,
{8}7-4[8:1],,7/4pp3[8:2],,2b,,1,8>4[16:3],,4,5-1[8:1],6,5/7<4[8:1]*>2[8:1],,7,,
3V51[4:1],,1V35[16:3],8,7,,6,6>3[8:1],,1,1-4[8:1],,6h[4:1],,
{16}5,6,5,6,
{8}4-2[8:1],5,6-8[8:1],5,4-2[8:1],5,6-8[8:1],5,4-2[8:1],5,6-8[8:1],5,4-1[8:1]*-7[8:1],5,4,,
{8}2-5[8:1],7-4[8:1],2,7,3-8[8:1],8q4[8:1],3,7h[4:1],,
{16}5,5,6,,7/4,,8-4[8:1]/3-1[8:1],,,,8/3,,,,
{8}6-3[8:1],1-6[8:1],6<4[4:1],1,5,,6,6/5h[4:1],,8-3[8:1],3>5[4:1],8,4,,2b,,
2/5,3,4/8,7,2v5[8:1],6v1[8:1],2,6,,
{8}7/3,6/2,5/1,4-7[8:1]/8-3[8:1],,4/8,,
{8}4-7[8:1]/6,5,2/4-1[8:1],3,6/4-7[8:1],5,2/4-1[8:1],3,6/4-7[8:1],5,2/4-1[8:1],3,6/4-8[8:1],5,2/4,,1-5[8:1],7-3[8:1],1,7,2-6[8:1],6p1[8:1],2,7h[4:1],,
{16}8,8,8,,1/7,,2-5[8:1]/6-1[8:1],,,,2/6,,,,
{8}2-6[8:1],6-2[8:1],2V48[16:3],7,7,,6,6/1h[4:1],,7-3[8:1],3-7[8:1],7,2,,8b/1b,,
{16}7h[8:1],,4,6,1h[8:1],,4,2,
{8}7<4[8:1],3v8[8:1],7,3,,5b/1b,3bV14[8:2]*pp4[8:2]/7b,,,,,,
E
&inote_6=(182)
{1},,
{16}3,4,3,4,3,4,2-5[8:1],,,,6,,,,,,
6,5,6,5,6,5,7-4[8:1],,,,3,,,,,,
2,4,2,4,2,4,1-5[8:1],,,,7,,,,,,
7,5,7,5,7,5,8-4[8:1],,,,2,,,,,,
{16}3,5,3,5,3,5,3,,2-5[8:1],,2,,6,,6,,
{16}7,8,7,8,7,8,7,,6-3[8:1],,6,,1,,1,,
{16}2,4,2,4,2,4,2,,1-5[8:1],,1,,6,,6,,
{16}7,4,7,4,7,4,7,,8-4[8:1],,8,,3,,3,,
{16}2,5,2,5,2,5,2,,3>8[8:1],,3,,7,,7,,
{16}6,1,6,1,6,1,6,,5<8[8:1],,5,,2,,2,,
{16}3,7,3,7,3,7,3,,4-8[8:1],,4,,6,,6,,
{16}5,1,5,1,5,1,5,,6-2[16:2],,2,,6,,,,
{8}3-8[8:1],,7,7,,6,6/1,,5-1[8:1],,2,2,,3,3/8,,
2-5[8:1],,6,6,,7,7/4,,8-4[8:1],,3,3h[8:3],,1,1,,
{8}7-4[8:1],,3,3,,2,2/1,,3-6[8:1],,8,8,,7,7/1,,
6-1[8:1],,2,2,,3,3/8,,4-8[8:1],,7,7h[8:3],,5,5,,
{8}3V51[8:3],,6,6,,8,8,,7V51[8:3],,4,4,,3,3,,
2V48[8:3],,1,1,,7,7,,6<4[8:3],,1,1h[8:2],,,2/6,,
5V73[8:3],,4,4,,1,1,,2V48[8:3],,8,8,,7,7,,
6V84[8:3],,5,5,,3,3,,1pp4[8:4],,5,5h[8:3],,,,,
