&title=モエチャッカファイア
&artist=弌誠
&first=0.78
&des=MeraNeko
&lv_5=12+
&inote_5=(163){8}4h[4:3]/5,,5,,5,,5,,6h[4:3]/3,,3,,3,,3,,2h[4:3]/7,,7,,7,,8,,
{4}1<6[8:1],1>4[8:1],1-5[8:1],1,
{8}4b/2,3,64,5,53,4,5h[8:1]/6,,7h[2:1],3,2,3,4-8[8:1],,,,
57,6,35,4,46,5,4h[8:1]/3,,2h[2:1],6,7,6,5-1[8:1],,,,
83,2,71,6,54,3,4/2,,7h[2:1]/1,2,1,2,3,,6,7,
8^5[8:1],1,2,,4^1[8:1],5,6,7,8-4[8:1],,8w4[8:1],,8b,,,,
{16}64,,5,,4,5,,5,74,,5,,63,,5,,35,,2,,46,,7,,1h[4:1]/8h[4:1],,,,,,,,
1,8,1,8,1,,2,,3-8[8:1],,,,,,,,7x/B7,,,,3x/B3,,,,6x/E6,,,,4x/B4,,,,
{8}61,7,38,2,53,6,37,2,71,2,34,5,47,,8,1,
2^4[8:1],1,8,,7^5[8:1],1,2,3,3-8[8:1]/4-7[8:1],,34,,34,,,,
{16},,7,5,6,,4,,53,,4,,57,,6,,53,,2,,53,,7,,4-8[8:1],,,,,,,,
2,5,3,5,4,6,4,5,4>1[8:1],,,,6,,,,
8-6[8:1],,,,1-5[8:1]/8,,,,2-4[8:1]/1,,,,2,,,,
,,2,4,3,,5,,46,,5,,42,,3,,2h[4:2]/7,,6,,5,,6,,7,,,,2,,1,,
8-5[8:1],,1,,8,,,,3-7[8:1],,5,,3,,6,,1-4[8:1]/8-5[8:1],,,,18,,,,8/1b,,,,,,,,
{8}2<6[4:1],2,6q2[4:1],5,4,5,6,,7p4[4:1],,4>7[4:1],,,,,,
7>3[4:1],7,3p7[4:1],4,5,4,3,,2q5[4:1],,5<2[4:1],,,,,,
1-4[8:1],4>7[8:3],5,6,7,6,5,,4pp3[4:1],,3>6[4:1],,,5,4,3,
52,4,3,,47,6,53,4,1-6[8:1]/2-5[8:1],,21,,Cf/E7/E3,,,,
{8}81,18,2/7h[8:3],,,2,C/B2,,8,7,6/C,5,4h[4:1],,C,,
53,53,6/2h[8:3],,,6,C/B7,,1,2,3h[4:1]/C,,5h[4:1],,C,,
64,64,5h[8:1]/3h[8:1],,42,5,47,5,5h[2:1]/4,3,2,1,8-4[8:1],,,,
{12}5h[4:1]/6,6,6,7,,,4h[4:1]/3,3,3,2,,,
{8}1^4[8:1],,6<4[4:1],,5b,,,,
{16},,4,5,3,,5h[8:3],,4,,6,,4,,3,,3h[8:3],,4,,2,,4,,5-1[8:1],,,,,,,,
2,8,1,7,1,8,1,8,1-5[8:1],,,,1,,,,2x/B2,,,,6x/B6,,,,3x/E4,,,,5x/B5,,,,
{16},,5,4,6,,3h[8:3],,4,,2,,4,,5,,6h[8:3],,5,,7,,5,,4^1[8:1],,,,5,,6,,
75,,6,,6h[8:1]/4h[8:1],,,,2,,3,,6/4-1[12:1],,7,,
4/8-5[12:1],,,,1/8>8[4:1],,,,{32}8x,D1,D2,D3,D4,D5,D6,D7,{4}D8,
{8}8b^3[8:1],7,6,5,4^7[8:1],3,2,1,2-6[8:1],8-4[8:1],2<5[4:1],8,2,,,,
1^6[8:1],2,3,4,5^2[8:1],6,7,8,7-3[8:1],1-5[8:1],7>4[4:1],1,7,,,,
1^4[8:1],8,7,6,5^8[8:1],4,3,2,1-5[8:1],5V73[4:1],1,,,6,7,8,
1-5[8:1],8,7,,6-2[8:1],5,4,3,1-4[8:1],,6<3[4:1]/1,,6v3[4:12],,
{4},,,,,,,,,,,,,,
6,54,54,3,54,54,7,54,54,
2^5[4:1],6,7,8p4[4:1],1,2,
3v6[4:1],1,7,7>3[4:1],5,4,
3^8[4:1],4,5,6^3[4:1],8,1,
2>8[8:6],4<1[8:5],6<2[8:4],7h[4:1],,{8}6,5,
35,,3,5,4,5,5/4^1[4:1],,6,,7,8,
18,,1,8,2,8,2/7^4[4:1],,2,,1,,
1>3[8:3]<5[4:1],,,3^6[8:3]^1[32:9],,,6<2[8:3]^4[8:1],,,2>2[2:1],,,Cf,,,,,,
{16}B1,E6,E4,B7,E2,E7,C,B8,B3,E8,B2,B5,
{8}5x/7x,6,5,4,64,5,4,3,25,3,4,5,37,4,5,6,
{8}3h[8:3]/6,5,4,5,6h[8:3]/3,2,1,2,2h[8:3]/6,7,6,5,7h[8:2]/4,3,2>7[4:1],1,
Chf[2:1],,,,5,4,53,2,63,36,27,72,18,,4,5,
{32}3x,2x,1hx[16:13],,{8},,,8,8,8,8,1-5[8:1]b/8-4[8:1],,18,,Cf/B6/B7/B2/B3,,,,
7/2-5[8:1],1,7-4[8:1]/2,8,7/3-8[8:1],2,5/3,,6<1[8:1]/4,7,4^1[8:1]/6,3,45,,C,,
2/7-4[8:1],8,2-5[8:1]/7,1,2/6-1[8:1],7,4/6,,3-8[8:1]/5,2,5-8[8:1]/3,6,54,,C,,
6/2^5[8:1],1,6v1[8:1]/2,7,6/3-7[8:1],2,5/3,,86,1,52,5,63,4,74,{16}5,6,4,,3,,53,,,,
{8}42,3,75,6,4-1[8:1]/5-8[8:1],,45,,4b/5b,,3,,
74,6,25,3,82,7,26,3,64,3,21,8,1-4[8:1]/6-3[8:1],,,,
25,3,74,6,53,2,73,8,28,7,64,3,8^5[8:1]/2^5[8:1],,,,
38,2,61,7,46,3,62,7,28,7,65,4,52,,1^4[4:1],8,
7,6,5,,5^8[8:1],4,3,2,1-3[8:1]/8-6[8:1],,1-5[8:1]/8-4[8:1],,1b/8b`Cf,,,,
{24}1x,2x,3x,7x,6x,5x,2x,3x,4x,8x,7x,6x,4x,3x,2x,6x,7x,8x,3x,2x,1x,5x,6x,7x,
{4}1x-5[8:1],1w5[8:1]b,1b,C,
