&title=布団の中から出たくない
&artist=打首獄門同好会
&des=えども~ん
&first=0
&lv_5=12
&inote_5=
(174)
{1},
{4}6h[2:1],,4,,4h[2:1],,5,,5h[2:1],,3,,3h[2:1],4,5,,2h[2:1],,6,,6h[2:1],5,4,,{2}3,5,4b,,
{8}6,6h[8:3],,,2,7,2,7,{1}1-5[2:1],
{8}3,5,3,5,4,6,4,6,5,5^2[2:1],,,,,,,
{8}6,4,6,4,7,3,7,3,{4}6,6q3[3:1],,,
{8}4,5,4,5,3,6,2,6,{1}3^6[2:1],
{8}8,1,8,1,7,2,7,2,{4}5,5q1[3:1],,,
{8}3,4,3,4,2,5,3,6,
{8}7b/1b,1<4[6:1]/7,71,,,,1b/2b,1>5[6:1]*<5[6:1]/2,12,,,,3b/8b,3-6[6:1]/8-5[6:1],38,,,,8b-5[6:1],,,1b^4[6:1],,,
{8}8,,2,1,2,,5,4,{2}6^3[2:1],,
{1}3^6[2:3]/6q3[2:3],,
{8}4,,4h[4:1],,5,4,6,3,5,5pp4[2:1],{4}3,,,
{8}2,6,3,7,2,6,3,7,{1}2>6[2:1],
{8}7,4,7,4,6h[4:1],,5,6,3,,3^8[3:1],,,,,,
{8}6,4,6,4,7,2,6,8,
{8}7b/1b,1<4[6:1]/7,71,,,,1b/2b,1>5[6:1]*<5[6:1]/2,12,,,,3b/8b,3-6[6:1]/8-5[6:1],38,,,,8b-5[6:1],,,1b^4[6:1],,,
{4}8b,8b,8b,8b,
{16}1b,8,1,8,1,8,1,8,1b,8,1,8,1,8,1,8,
{4}2>6[6:1],1b/2b,7-4[6:1],7b/8b,3>7[6:1],3b/4b,6^1[6:1],2b/6b,
{4}3p6[4:1],6^3[4:1],3p6[4:1],6>8[4:3]*p7[4:3],,,,,
{8}1-6[8:1],7,1b,7,1-4[8:1],7,1b,7,{4}5p1[8:1]/6-2[8:1],5b/6b,3b/8b,{8}3,4,{4}78,56,12,35,{1}5b^2[4:1]/6b^1[4:1],
{8}7<3[6:1],7,1b,,2-5[6:1],2,8b,,6<2[6:1],6,5b,,3^8[6:1],3,4b,,
{4}6q3[4:1],3^6[4:1],6q3[4:1],3<1[4:3]*q2[4:3],,,,,
{8}8-3[8:1],2,8b,2,8-5[8:1],2,8b,2,{4}6^3[8:1]/3-6[8:1],3b/6b,2b/7b,{8}5,6,{4}78,12,34,46,{1}1bpp4[2:1]/8bqq5[2:1],
{1}2h[4:3]/7h[4:3],1b/8b,
{8}1,1h[8:3],,,7,3,6,2,7p3[2:1],,,,,,,,
{8}3,6h[8:2],,3,,,5,4,4-2[3:1]/5-7[3:1],,,,,,,,
{8}6,4,5,3,5,3,6,4,7p5[2:1],4,7,,,,,,
{1}3pp1[2:3]/6qq8[2:3],,
{8}2h[1:1],,,,,,,,5,3,5,4,{6}6,5,4,{8}5pp1[4:6],,,,,,,,,,,,,,,,2h[1:1],,,,,,,,5,,,,{6}1,8,7,{8}8qq3[4:6],,,,,,,,,,,,,,,,
{1}4bqq1[1:2],,6bq3[1:1],{8},,,,,,1,1,,,,,,,1,1,,,,,
{16}6b,3b,6b,3b,6b,3b,6b,3b,
{4}4-8[8:1]/5-7[8:1],4b/5b,4-2[8:1]/5-1[8:1],4b/5b,8^6[8:1]/1p5[8:1],8b/1b,8q4[8:1]/1^3[8:1],8b/1b<5[4:1],
{4}5>1[4:1],1b<5[4:1],5>1[4:1],1bpp5[4:3]*qq5[4:3],,,,,
{8}1^6[8:1],5,1^4[8:1],5,1-5[8:1],5,1b,,4-1[8:1]/6-1[8:1],,4b/6b,,8b/2b,,3,5,1b/6b,,7b/5b,,2b/8b,,4b/3b,,1b^4[6:1]/8b^5[6:1],,,,,,{16}4,5,4,5,
{8}2-5[8:1],2,8b,8,7^4[8:1],7,1b,1,3^8[8:1],3,5b,5,6-1[8:1],6,4b>8[4:1],4,
{4}8<4[4:1],4b>8[4:1],8<4[4:1],4bpp8[4:3]*qq8[4:3],,,,,
{8}8^3[8:1],4,8^5[8:1],4,8-4[8:1],4,8b,,8-5[8:1]/2-5[8:1],,8b/2b,,4b/6b,,7,1,5b/2b,,3b/1b,,6b/4b,,8b/7b,,{1}5bpp8[2:1]/4bqq1[2:1],
{1}2h[4:3]/7h[4:3],4b/5b,
{8}3,3h[8:3],,,7,2,7,2,{1}8-4[2:1],
{8}6,4,6,4,5,3,5,3,4,4^7[2:1],,,,,,,
{8}3,5,3,5,4,6,4,6,3,3,,3p6[3:1],,,,,
{8}5,4,5,4,6,3,7,3,{1}6^3[2:1],
{1}1-4[4:6],,8^5[4:6],,{8}6,5,6,5,6,,,,3,4,3,4,3,,,,{32},{1}3^6[1:2]/6q3[1:2],,
&amsg_time=
&amsg_content=EC~R@SO4
