&title=紫陽花 -AZISAI-
&artist=かめりあ; 藤森崇多
&first=0
&des=yuzukeai
&lv_4=12
&lv_5=14
&inote_1=(155)
{1}
,,3<2[4:11],,,
{2}
6h[8:4],5h[8:4],4q5[4:6],,,,
{4}
2,36,47,58,
{16}61,7,8,1,2,3,4,5,1,2,3,4,5b/7-3[8:1],,,,
{16}7,5,,5,,,4,7,4,,5,2,5,,3,4,
3,,6,5,6,,2,3,2,,7,6,7,,2,1,2,,7,8,7,,1,8,2,,8,1,7,,1,8,
3,,8,1,6,,1,8,2,6,3,5,4b-8[8:1],,,,
7-4[8:1]/4,,,,7,,,,1>4[8:1],8,1,8,1-5[8:1],,,,
1/2-6[8:1],,,,2,,,,{12}7,7,7,2,2,2,
7h[16:2],,,{16}7h[114513:1]/8,,1/2h[114513:1],,8-4[8:1],1,8,1,8,,,,
61,,,72,,,38,,,41,,,25,,3,4,5,,6,5,4,,3,4,5-1[8:1],,8,,8,,8,7,
6,,1,2,3,,7,6,5,,25,,{24}3-8[8:1],4,3,4,,,
5V74[2:1],,,,,,,,,,,,4-8[4:1],,,,,,8<3[2:1],,,,,,
,,,,,,,,,,,,{16}1,,,2,,3,6,5,4,,3,4,5,,6,5,4-8[8:1],,1,,1,,1,2,
3,,8,7,6,,2,3,4,,4,,{24}5-1[8:1],4,6,5,,,
,,,,,,,,,82,37,46,5h[4:1],,,,,,{16},,4v6[8:1],,
6,,4,,7V13[4:1],,3,,4-1[8:1],,,,4qq7[8:3],,,,
4,,,,,,2,3,4h[8:1],,8h,,8h,,8h,,
{16}8,7,6,5h[8:1],8z4[4:1],7,6,5,84,3,2,1,8pp3[8:3],,,,
8,,,,,,6,7,8h[8:1],,4h,,4h,,4h,,
{16}4,3,2,1h[8:1],4z8[4:1],3,2,1,48,7,6,5,4-1[8:1]*-7[8:1],,,,
4q5[8:2],,,,4,,,,1h[4:1],,6h,,2h,,4h,,
{16}8,8,1,7,3,5,7,1,1,,6,2h[8:1],,5,5,5,
{32}2,3,4,5,6,7,8,1,{16}4b/2-6[8:1],,,4,
{16}2,,4,,4/7h[4:1],,,,6,6,5,5,4,4,3,3,2,2,1,1,1-4[8:1]/8-5[8:1],,,,
1b/8b,,,,,,,,,,,,3,,2,,1v2[8:1],,,,7,,6,,5v6[8:1],,,,2,,3,,
4,,,,6,,,,2,,,,8,,7,,
6v5[8:1],,,,4,,3,,2v1[8:1],,,,4V68[8:3],,,,
4,,,,,,,,,,,,2,,3,,4v3[8:1],,,,6,,7,,8v7[8:1],,,,3,,2,,
1v2[8:1],,8v7[8:1],,,,,,3v4[8:1],,6v5[8:1],,,,,,
1bw5[8:4],,,,,,,,,,,,,,,,
2b,,31,,48,,57,,68,,15,,24,,31,,
48,5,6,7,84,1,2,3,{32}4/8-5[16:1],5,6,7,8,1,2,3,{16}4/8b,,,,
34,,24,,{24}3,4,3,4,,,18,,,6,5,6,5,,,{16}8,1,4,3,8,1,6,5,7,4,6,,2,5,3,,46,,
{16}65,,34,,{24}6,5,7,5,,,81,,,3,4,2,4,,,{16}8,1,4,3,8,1,6,5,7,4,6,,35,,5,6,7,8,
1/2h[16:3],,,8-4[8:1],{16}2h[16:3],,,8,
2h[16:3],,,,{16}5,6,7,8,
1/2h[16:3],,,5-1[8:1],{16}2h[16:3],,,5,2h[16:3],,,,8,7,6/3-1[8:1],5,
4,,3/4-8[8:1],,,,3-1[8:1]/4,,,,3/4-8[8:1],,,,3-1[8:1]/4,,
,,3/4-8[8:1],,,,34,,,,1b,1b,1bz5[4:1]*>1[4:3],,,,
,,,,,,,,,,,,,,5,2,
3/4b,,,6/5b,,,2b/4,,,7b/5,,,1b-4[8:1]/8,,1/8b,,
17,,7,,{24}7,6,7,6,,,28,,,2,3,2,3,,,{16}1,8,5,6,1,8,3,4,2,5,3,,46,,4,3,2,1,
4h[16:2]/8h[16:2],,,,1h[8:1]/5h[8:1],,,,2h[8:1]/4h[8:1],,,,7h[8:1]/5h[8:1],,,,
3h[8:1]/4h[8:1],,,,5h[8:1]/6h[8:1],,,,21,,3,,87,,6-8[8:1],,
,,6/5-1[8:1],,,,5/6-8[8:1],,,,5-1[8:1]/6,,,,56,,6h[4:1],,,,,,8b,8b,8bw4[8:1],,,,8bqq5[8:3]*pp3[8:3],,,,
,,,,,,,,1,8,2,7,3h[4:1],,,,7,6,5,4,3qq8[8:3],2,1,8,73,,,,,,,,
{24}7,6,5,4,3,2,8,7,6,5,4,3,{16}2-7[16:1]/6-3[16:1],,,2b/6b,,,1bz5[8:1]/5b,,
,,,,6,7,8,1,2w6[8:1],,,,2,,,,{32}4,3,2,,5,,5,,3,2,1,,4,,4,,2,1,8,,5,,5,,1,8,7,,4,,4,,
8-4[16:2],7,6,5,4,3,2,1,8/6pp1[8:3],,6,,,,6b,,,,,,,,,,2h[4:1],,,,,,,,
8,7,6,,1,,1,,7,6,5,,8,,8,,6,5,4,,1,,1,,5,4,3,,8,,8,,
4,3,2,1,8,7,6,5,4,3,2,1,8,7,6,5,4,,,,1,,7,,3,,5,,2,,8,,
{16}2,,6,4,6,,4,7,4,,5,2,5,,3,4,
{24}3,4,3,4,3,4,{12}2,2,2,{16}72,,{24}6,5,6,{16}4,7,,3,
{16}5,,5,4,7,,7,8,6,,4,5,2,,2,1,
3,,8,1,6,,6,5,8,8,8,8,8b-5[8:1]*-3[8:1],,,,
{32}8,,,,,,,,8,71,62,53,4,,,,{16}7/8w4[8:1],,78,,8>3[8:1]*<5[8:1],,,,
8,,,,{32}1,82,73,64,5,,,,{12}73,73,73,51,51,51,
7h[16:2]/3h[8:1],,,{32}2,3,4,,7,6,5,,{16}1-5[8:1],8,4,5,1,,,,
3h[16:2]/8h[8:1],,,2h[8:1]/7h[8:1],,,6h[8:1]/1h[8:1],,,5h[8:1]/8h[8:1],,,7-3[32:3]/4-7[32:3],,47,,4b>1[1:2]/7b<1[8:14]
,
&inote_4=(155)
{1}
,,
3pp4[1:1]/7<8[2:5],,,
{4}6h[2:1],,4h[2:1],,5pp5[1:1],3,3,3,2,2,1,1,82,28,37,3/7p5[4:3],4,,,2b,
{8}17,,17,,56,,7,,
{8}82,,82,,43,,2,,
17,,35,,28,,46,,
1h[8:1]/8h[8:1],,2h[8:1]/7h[8:1],,3,3,
5<8[8:1],,4v1[8:1],,6,,2-6[8:1],2,8,,
1>4[8:1],,8v5[8:1],,2h[12:1],,2h[12:1]/6,,3b,,71,1,6b,,3qq8[4:3]/8,,,,,,,,,,
{16}7-5[8:1],,,,2-6[8:1],,,,7,,,,7,,,,{16}7-5[8:1],,,,2-6[8:1],,,,7-5[8:1],,,,,,,,
2h[1:1],,,,,,,,4,,,,5,,,,6V48[2:1],,,,,,,,,,,,,,,,
{16}2-4[8:1],,,,7-3[8:1],,,,2,,,,2,,,,{16}2-4[8:1],,,,7-3[8:1],,,,2-4[8:1],,,,,,,,
7b,,,,7,,,,5,,6,,4,,,,37,,3,,5,,5,,1-4[8:1],,,,
5pp8[2:1],,,,,,,,,,,,2,,2,,7,,7,,4-1[8:1]/7h[4:1],,,,,,,,8b,,,,1pp4[2:1]/7,,,,,,,,,,,,6,,6,,3,,3,,8-5[8:1]/3h[4:1],,,,,,,,4b,,,,6-4[8:1]/2,,,,3v8[8:1],,,,8,,,,7,,7,,1,,1,,1-4[8:1]/8-5[8:1],,,,18,,,,2b/7b,,,,,,,,7-4[8:1]/3h[4:1],,,,,,,,2-5[8:1]/6h[4:1],,,,,,,,2V41[2:1]/7V58[2:1],,,,,,,,,,,,,,,,2h[4:3]/7h[4:3],,,,,,,,,,,,,,,,3h[4:3]/4h[4:3],,,,,,,,,,,,,,,,5,,,,6,,,,7,,,,8<5[2:1],,,,1h[2:1],,,,,,,,,,,,,,,,2h[4:3]/7h[4:3],,,,,,,,,,,,,,,,6h[4:3]/5h[4:3],,,,,,,,,,,,,,,,4,,,,3,,,,2,,,,1V73[4:3],,,,7h[4:3],,,,,,,,,,,,,,,,7b-3[4:3],,,,,,,,,,,,,,,,2h[2:1],,,,1,,,,8-5[8:1],,,,8b/1,,,,
2,,3,,4h[8:1]/6,,,,7,,6,,5h[8:1]/3,,,,26,,3,,47,,6,,51,,2,,38,,7,,
26,,3,,4h[8:1]/7,,,,7,,6,,5h[8:1]/2,,,,26,,3,,47,,6,,51,,2,,38,,7,,
6-3[8:1],,,,2-5[8:1],,,,8-4[8:1],,,,1,,,,
3-6[8:1],,,,7-4[8:1],,,,1-5[8:1],,,,8,,,,
2,,7,3,7,,2,6,2,,7,3,7,,2,6,2b,,7,3,7b,,2,,2b-6[8:1],,,,5<4[8:5],,,,,,,,,,,,,,,,,,36,,18,,,57,,,18,,,24,,,1h[8:1]/8h[8:1],,,,
26,,3,,4h[8:1]/7,,,,73,,6,,5h[8:1]/2,,,,26,,3,,48,,7,,62,,3,,48,,7,,6/3h[4:1],,,,6,,,,5h[4:1]/2,,,,2,,,,4h[4:1]/7,,,,7,,,,1/6h[4:1],,,,1,,,,7,,2,6,2,,7,3,7,,2,5,2,,7,4,7h[4:1],,,,3,,2,,1-4[8:1]/5-8[8:1],,,,,,,,2h[4:1]/6h[4:1],,,,,,,,3,5,3,5,3h[4:1],,,,6,4,6,,2V48[4:1],,2,,5h[4:1],,,,,,,,
1,2,3,4,5,6,7,8,1h[16:3],,,,,,3h[4:1]/7h[4:1],,,,,,6,4,6,4,6h[4:1],,,,,,,,
15,,3,4,3,,6,5,6,,3,4,2,,6,5,7h[4:1],,8,,1,,2,,3h[4:1]/6h[4:1],,,,,,,,
27,,6,5,6,,3,4,3,,6,5,7,,3,4,2h[4:1],,1,,8,,7,,7-3[8:1],,,,2-6[8:1],,,,8bpp4[2:3]*qq4[2:3],,,,,,,,,,,,,,,,,,,,,,,,,,,,,,,,
28,,3,,46,,,,17,,,,35,,,,2b^5[8:1],,,,8b-4[8:1],,,,1,,1,,1^4[8:1],,,,6-2[8:1],,,,5^2[8:1],,,,8,,8,,8^5[8:1],,,,3-7[8:1],,,,4,,,,
{12}1,5,2,6,3,7,4b-1[8:1]*-7[8:1],,,,,,5b-8[8:1]*-2[8:1],,,,,,
{16}36,,,47,,,36,,,25,,,3h[8:1]/6h[8:1],,,,4>5[1:2]/5<4[1:2]
,
&inote_5=(155)
{1}
,,3<2[4:11],,,
{2}
6h[8:4],5h[8:4],4q5[4:6],,,,
{4}
2,36,47,58,
{16}61,7,8,1,2,3,4,5,1,2,3,4,7b-3[8:1],,,,
{16}7b,1,,1,,,7,4,7,,2,5,2,,3,4,
3,,6,5,6,,2,3,2,,7,6,7,,2,1,2,,7,8,7,,1,8,2,,8,1,7,,1,8,
3,,8,1,6,,1,8,3,7,4,6,5b-1[8:1],,,,
7-4[8:1]/5,,,,7,,,,1>4[8:1],8,1,8,1-5[8:1],,,,
1/2-6[8:1],,,,2,,,,{12}7,7,7,2,2,2,
7h[16:2],,,{16}7h[114513:1]/8,,1/2h[114513:1],,8-4[8:1],1,8,1,8,,,,
61,,,72,,,38,,,41,,,25,,3,4,5,,6,5,4,,3,4,5-1[8:1],,6,,7,,8,7,
6,,1,2,3,,7,6,5,,1,,{24}1/5-1[8:1],2,3,4,,,
5V74[2:1],,,,,,,,,,,,4-8[4:1],,,,,,8<3[2:1],,,,,,
,,,,,,,,,,,,{16}1,,,2,,3,6,5,4,,3,4,5,,6,5,4-8[8:1],,3,,2,,1,2,
3,,8,7,6,,2,3,4,,8,,{24}5-1[8:1],7,5,6,,,
6b,,,,,,,,,82,37,46,5h[4:1],,,,,,{16},,4-1[8:1],,
6,,4,,7V13[8:2],,3,4,5-1[8:1],,,,5pp8[8:3],,,,
5b,,,,,,2,3,4h[8:1],,8h,,8h,,8h,,
{16}4,3,2,1,5qq2[8:3],6,7,8,5b/1,,,,1w5[8:1],,,,
1b,,,,,,7,7,1h[8:1],,4h,,4h,,4h,,
{16}4,3,6,,4-8[8:1],5,2,,4,,2,3,4-1[8:1]*-7[8:1],,,,
4q5[8:2],,,,4b,,,,8h[4:1],,4h,,3h,,2h,,
{16}1,8,1,7,3,5,1,1,,,6,2h[8:1],,5,5,,
{32}2,3,4,5,6,7,8,1,{16}4b/2-6[8:1],,,8-4[16:1],
{16}2,,8,,2b,,,,6,6,5,5,4,4,3,3,2,2,1,1,1-4[8:1]/8-5[8:1],,,,
1b/8b,,,,,,,,,,,,3,,2,,1v2[8:1],,,,,,,,5v6[8:1],,,,2,,3,,
4,,,,6,,,,8,,,,2,,,,
6v5[8:1],,,,,,,,2v1[8:1],,,,4V68[8:3],,,,
4,,,,,,,,,,,,2,,3,,4v3[8:1],,,,,,,,8v7[8:1],,,,3,,2,,
1v2[8:1],,8v7[8:1],,,,,,3v4[8:1],,6v5[8:1],,,,,,
1bw5[8:4],,,,,,,,,,,,,,,,
2b,,31,,48,,57,,68,,15,,24,,31,,
48,5,6,7,84,1,2,3,{32}4/8-5[16:1],5,6,7,8,1,2,3,{16}4/8b,,,,
34,,24,,{24}3,4,3,4,,,18,,,6,5,6,5,,,{16}8,1,4,3,8,1,6,5,7,4,6,,2,5,3,,46,,
{16}65,,34,,{24}6,5,7,5,,,81,,,3,4,2,4,,,{16}8,1,4,3,8,1,6,5,7,4,6,,35,,5,6,7,8,
1/2h[16:2],,,8-4[8:1],{16}2h[16:2],,,8,
2,,3,,{16}54,6,7,8,
1/2h[16:2],,,5-1[8:1],{16}2h[16:2],,,5,2,,2,,42,,5/3-1[8:1],,
46,,3/4-8[8:1],,,,3-1[8:1]/4,,,,3/4-8[8:1],,,,3-1[8:1]/4,,
,,3/4-8[8:1],,,,34,,,,3,3,4bp8[4:1]*>4[4:3],,,,
,,,,,,,,,,,,,,5,2,
3/4b,,,6/5b,,,2b/4,,,7b/5,,,1b-4[8:1]/8,,2/7b,,
18,,7,,{24}7,6,7,5,,,28,,,2,3,2,4,,,{16}1,8,5,7,1,8,2,4,1,6,3,,46,,4,3,2,1,
8/7h[16:3],,,1-5[8:1],{16}7h[16:3],,,1,
7h[16:3],,,,{16}4/7,3,2,1,
8/7h[16:3],,,4-8[8:1],{16}7h[16:3],,,4,7h[16:3],,,,57,,4/6-1[8:1],,
5,,6/4-8[8:1],,3,,4/5-1[8:1],,6,,3-7[8:1]/5,,2,,35,,6h[4:1],,,,,,8b,8b,8bw4[8:1],,,,8bqq5[8:3]*pp3[8:3],,,,
,,,,,,,,1,8,2,7,3h[4:1],,,,7,6,5,4,3qq8[8:3],2,1,8,7/3b,,,,,,,,
{24}7,6,5,4,3,2,8,7,6,5,4,3,{16}2-7[16:1]/6-3[16:1],,,2b/6b,,,1bz5[8:1]/5b,,
,,,,6,7,8,1,2w6[8:1],,,,2,,,,{32}4b,3,2,,5,,5,,3,2,1,,4,,4,,2,1,8,,5,,5,,1,8,7,,4,,4,,
8b-4[16:2],7,6,5,4,3,2,1,8/6pp1[8:3],,,,,,6b,,,,,,,,,,2h[4:1],,,,,,,,
8,7,6,,1,,1,,7,6,5,,8,,8,,6,5,4,,1,,1,,5,4,3,,8,,8,,
4b,3,2,1,8,7,6,5,4,3,2,1,8,7,6,5,4,,,,1,,7,,3,,5,,2,,8,,
{16}2,,6,4,6,,4,7,4,,5,2,5,,2,5,
{24}3,4,3,4,3,4,{12}2,2,2,{16}2,,{24}6,5,6,{16}4,7,,3,
{16}5,,5,4,7,,7,8,6,,4,5,2,,2,1,
3,,8,1,6,,6,5,8,8,8,8,8b-4[8:1],,,,
{32}8b,,,,,,,,8,71,62,53,4,,,,{16}8>4[8:1]*<4[8:1],,17,,8w4[8:1],,,,
8,,,,{32}1,82,73,64,5,,,,{12}6/3>5[4:1],25,14,3,,,
{8}1,,{32}2,3,4,,7,6,5,,{16}1-5[8:1],8,4,5,1,,,,
3h[16:2]/8h[8:1],,,2h[8:1]/7h[8:1],,,6h[8:1]/1h[8:1],,,5h[8:1]/8h[8:1],,,7-3[32:3]/4-7[32:3],,47,,4b>1[1:2]/7b<1[8:14],,,,,,,,,,,,,,,,,,,,,,,,,,,,,,,,,,,,,,,,,,,,,,,,,,,,,,,,,,,,,,,,,,,,,,,,,,,,,,,,E
