&title=Finally Dive
&artist=ここなつ Produced by lapix
&first=0
&des=好想龙龙好想你
&lv_5=13+
&inote_5=(146)
{1},
{1}2b>2>6<2>4<6<8>2>4[4:7],,
{8}6h[4:4],,,B4,E4,,,,
{8}2h[4:4],,,B4,E5,,,,
{4}5pp4b[8:5],,,,3qq4[8:5],,,5,
{8}5-8[8:2],,,,4-1[8:2],,,,
{4}7h[8:1],5h[8:1]/6h[8:1],3h[8:1],2h[8:1]/4h[8:1],
{4}1xpp4[8:4]/5xpp8[8:4],,,,
{32}E3,B3,B4,E5,,,,,E7,B6,B5,E5,,,,,{16}1-5b[8:1],8,2,7,1,,,,
{16}3b/6b,,,,2,,5,,3,,7,7,5h[4:1],,,,
{16}8h[4:1],,,,1,,7,,3,,6,6,4-2[10:1]*-6[10:1],,,,
{16},,,,7,,4,,6,,2,2,4h[4:1],,,,
{16}1h[4:1],,,,7-4[8:1],,5,,7,,2,2,4<7[8:1]*>2[8:1],,,,
{16}4,,,,1,,6,,3,,8,8,5h[4:1],,,,
{16}7-5[8:1],,8,,4-8[8:1],,3,,2q6[8:1],,1,,8-4[8:1]*-3[8:1],,7,,
{8},,5V31[8:2],,1V75[8:2],,5,,
{16}1,,3,4,,6-2b[8:1],5,7,,6x/8xw4b[10:1],,,8bx,,,,
{16}2b/7b,,,,3/4,,1,,2/6,,3,3h[16:3],,7,7,,
{16}6x/5hx[8:1],,8,,2/4,,1,,2x>6[8:1],,6x<2[8:1],,,,,,
{16}5-1[8:1]*-8[8:1],,,,5,,,,2/7,,6,6h[16:3],,2,2,,
{16}3x/4hx[4:1],,,,2>5[8:1],,8,,2,,6,6,5v2[8:1]*-8[8:1],,,,
{16}5,,,,3/7,,4,,1/7,,2,2,4<7[8:1],,,,
{16}1/4,,2-5[8:1],,2,,8,,7-4[8:1],,7,,1w5[8:1],,1,,
{16},,,,3/7,,8,,2-6[8:1]/1,,,,2/1-5[8:1],,,,
{16}1/8pp4>6[8:5],,,,,,E6/B5/B6,,,,,,,,,,
{16}2x/5x,,,,1/6p4b[8:3],,,2,,,2,,1,,,,
{8}2x/8x,,{16}7/3q5b[8:3],,,6,,,6,,7,,,,
{8}2x/1x,,{16}3q5[8:3]/8,,,7,,,7,,8,,8,,
{8}1x/7x,,{16}6p4[8:3]/2,,,1,,,1,,2,,3x,3x,
{16}4xpp4[8:2],,,,3/4,,,1x,,,8x,,2x/6x,,3/5,,
{16}7bqq7b[8:2],,,8,,,2,,3bqq3[8:2],,,7b,,,5bpp5>6[8:7]*qq5<4[8:7],,
{1},
{8}A6/A5/A4/D6/D5/B6/B4/B5f,,8b>3[8:1]*<5[8:1],,8bv3b[8:1]*v5b[8:1],,8b,,
{16}2,,6,5,7<2[16:4],,1/8,,6h[8:2],,,,,,6,6,
{16}8,,3,4,2<4[16:4],,8/1,,3h[8:2],,,,,,2,2,
{16}4b,,3>8[8:1],5,4,,7bx,,6b,,2<7[8:1],4,3,,6bx,,
{16}5b<4b[8:3],,,,Cf,,,,,,,,1,,4/6,,
{16}8h[8:1],,5q1[8:1],6,4,,2,,2h[8:1],,4<7[32:4],3,5qq8b[8:3],,4,,
{16},,,,1x>7[8:3],,,,2x,,,,1x,,2x,,
{16}3x/7x,,6,5,7,,1/8,,2/7,,3,4,2,,1/5,,
{16}5/6,,7,,3/4,,1,,2v5[8:1]/8-5[8:1],,3/7,,,,,,
{16}6,,2,1,3>6[16:4],,8/4,,2h[8:2],,,,,,2,2,
{16}4,,7,8,6>8[16:4],,1/5,,7h[8:2],,,,,,6,6,
{16}1b,,6<1[8:1],4,5,,2bx,,3b,,7>2[8:1],5,6,,3bx,,
{16}4bq7>3b[8:4],,,,Cf,,,,,,,,8,,6/5,,
{16}2h[8:1],,4p8[8:1],3,5,,7,,7h[8:1],,5>2[32:4],6,4pp1b[8:3],,5,,
{16},,,,8x<2[8:3],,,,7x,,,,8x,,7x,,
{16}6x-1[8:1]/2x-5[8:1],,,,2/6,,,,3h[8:1]/7h[8:1],,,5h[8:1]/6h[8:1],,,4/2,,
{16}1h[8:1]/8h[8:1],,,4h[8:1]/7h[8:1],,,2/5,,1b/8b,,,,E7/Cf/E3/B6/B2,,,,
{16}8h[8:1],,2x,6,4h[8:1],,5,3x,4h[8:1],,2x,6,4h[8:1],,7,1x,
{8}4-6[10:1],,4/7-3[8:1],,2-8[10:1]*-5[8:1]/7,,2,,
{16}8/2,,7x,3,5h[8:1],,4,6x,5h[8:1],,7x,3,5h[8:1],,2,8x,
{8}5w1[8:1],,5,,7,2-8[10:1],3/4,,
{8},7-3[8:1],5/6,,,4qq1[8:3]/5pp8[8:3],3/6,,
{16},,,,,,1/8,2/7,3h[16:3]/6h[16:4],,,,{24}2x,3x,4x,5x,6x,7x,
{16}8xbqq8b[8:2],,,1b,,,2b,,4bqq4[8:2],,,5b,,,6b,,
{1}8bs4>1b[8:4]*z4<7b[8:4],
{8}3h[4:4],,,B5,E6,,,,
{8}7h[4:4],,,B2,E3,,,,
{1}3qq5[8:5],6pp4b[8:5],
{8}1,2,3,4,5,6,7,8,
{16}1x,2,3,4,5,6,7,8,1,2,3,4,5,6,7,8,
{32}A2/E2/D2,A3,A4,A5,A6,A7,E8,E1,E2,E3,E4,E5,A5,A6,A7,A8,
{32}A1,A2,A3,E4,E5,E6,E7,E8,E1,A1,A2,A3,A4,A5,A6,A7,
{32}A7,E8,E1,E2,E3,E4,E5,E6,A6,A7,A8,A1,A2,A3,A4,A5,Ch[16:7],
