&title=Innocence!
&artist=虻川治
&first=-0.5
&des=-nine-
&des_5=
&lv_5=13+
&inote_5=(92.5){4},{48},,,,,,,,,,,,,,,,2,3,4,5,6,7,8,1,{8}2q3[2:1],{24}3,,5pp4[12:5],
,,,,,,,,,,,,,,,,,,{8}1pp8[12:5],{24}2,,6p5[12:5],
,,,,,,,,,,,,,,,{8}1,{12}4,{24}4,2,,2,
{12}5,{24}5,3,,3,{12}6pp5[4:1],{24}6,4,,4,{8}6,3,{12}2,{24}2,4,,4,
{12}3,{24}3,5h[12:1],,4b,,,6h[24:1],5,,,{8}7/8-4[12:1],2/1,8/1,{24}2,,2,
{12}5,{24}5,3,,3,,,6h[24:1],5,,,{8}7/8qq5[3:1],1/2,8/1,{24}2q3[4:1],,2,
,,,,,,,,,,,,{12}7h[12:1],{24}5,6h[12:1],,4>1[12:1],{12}5,{24}3,6,,4pp3[4:1],
,,{12}5h[24:1],{24},4/1,,,,,,,{12}2h[12:1],{24}4,3h[12:1],,5<8[12:1],{12}4,{24}6,3,,5qq6[24:5],
,,{12}4h[24:1],{24},5/8,,,{6}7h[24:1],{24}7/8-4[12:1],,,1/2,,,{8}1/8,{24}2,,2,
{12}5,{24}5,3,,3,,,6h[24:1],5,,,{8}7/8qq4[4:1],2/1,1/8,{24}2,,2qq5[4:1],
,,1,5,,2,,,,,,,{12}6h[12:1],{24}4,5h[12:1],,3,{12}4,{24}2,1,,4,
{12}5,8/7h[24:1],{24},6>3[12:1],,,7/5,,,6,{8}2h[8:1],1,7h[8:1],{24}6,,3,
{12}4,1/2h[24:1],{24},3<6[12:1],,,2,4,,,{8}7h[8:1],8,{12}2h[12:1],{24}4,3h[12:1],,5-8[12:1],
,,{12}6/4h[8:1],{24},5,,,2,1pp2[8:1],,,{8}7/8,6/1,{12}5pp6[6:1],{24}5,1pp2[6:1],,1,
,,,,,,,,5h[24:1],1h[24:1],5h[24:1],1h[24:1],6h[24:1],2h[24:1],6h[24:1],2h[24:1],7h[24:1],3h[24:1],{12}7h[12:1],{24}4,6h[12:1],,4-7[12:1],
,,{12}5/3h[8:1],{24},4,,,2,1,,,{8}5/6,1/8,{48}8h[12:1]/7>4[32:7],6,5,4V61[16:3],{4},,{24}4h[24:1],
8h[24:1],4h[24:1],8h[24:1],3h[24:1],7h[24:1],3h[24:1],7h[24:1],2h[24:1],6h[24:1],{12}2h[12:1],{24}5,3h[12:1],,5pp4[24:5],
,,{12}6/3h[8:1],{24},5,,,2,2,,,{12}1h[12:1],{24}5,2h[12:1],,6,{12}3qq4[4:1],{24}3,7,,7,
{8}3,5,{12}6,{24}7h[24:1],5h[24:1],7h[24:1],5h[24:1],8h[24:1],1h[24:1],8h[24:1],1h[24:1],7h[24:1],2h[24:1],{8}7qq4[4:1],4/6,
7/3,1,2pp5[4:1],3/5,2/6,8,7-2[12:1],6/4,
7/3-6[12:1],4,{12}3/8,{24}1,1w5[12:1],,3,{8}3,1b,{24},,,7,,7,
{12}4,{24}4,6,,6,,,3h[24:1],4,,,{8}1/2pp8[24:5],8/7,2/1,{24}7qq8[4:1],,7>3[6:1],
,,,,,,,,,,,,{12}3h[12:1],{24}1,2h[12:1],,8<5[12:1],{12}1,{24}7,2,,8pp3[4:1],
,,{12}1h[24:1],{24},8/6h[6:1],,,,,,,{12}6h[12:1],{24}2,5h[12:1],,1-4[12:1],{12}4,{24}2,6,,1-6[12:1],
,,8,5,,1,,,2,5-1[12:1],,,{8}4/7<4[12:1],6/5,7,{24}2,,2,
{12}5,{24}5,3,,3,,,6h[24:1],5,,,{8}8/7qq8[6:1],2/1,8/7,{24}3,,3pp2[6:1],
{12}1p7[24:5],{24}2,8,,3,,,,,,,{12}2h[12:1],{24}5,3h[12:1],,6,{12}4,{24}7,8,,5,
{12}4,1/2h[24:1],{24},3<6[12:1],,,2/4,,,3,{8}7h[8:1],8,2h[8:1],{24}3,,6,
{12}5,8/7h[24:1],{24},6>3[12:1],,,7,5-1[12:1],,,{8}2,8/5,{12}6h[12:1],{24}2,8h[12:1],,4q8[12:1],
,,{12}6/1,{24},4/3,,,2,1pp2[8:1],,,{8}5/4,1/7,{12}5pp4[24:5],{24}5,1pp2[6:1],,1,
,,,,,,,,5h[24:1],1h[24:1],5h[24:1],1h[24:1],6h[24:1],2h[24:1],6h[24:1],2h[24:1],7h[24:1],3h[24:1],{12}7h[12:1],{24}3,5h[12:1],,1p5[12:1],
,,{12}7/4,{24},1/2,,,3,4,,,{8}8/7,5/6,{48}8/2,3/7,4/6pp4[24:5],5>2[48:7],{4},,{24}1h[24:1],
5h[24:1],1h[24:1],5h[24:1],2h[24:1],6h[24:1],2h[24:1],6h[24:1],3h[24:1],7h[24:1],{12}3h[12:1],{24}5,1h[12:1],,6pp4[24:5],
,,{12}7/5,{24},6/3,,,2,2,,,{12}1h[12:1],{24}4,2h[12:1],,5,{12}3<6[0.6487##0.3243],{24}3,6<1[0.6487##0.3243],,6,
{8}3,8,{12}5h[12:1],{24}3h[24:1],4h[24:1],{12}2h[24:1],{24}6h[24:1],5h[24:1],7h[24:1],1h[24:1],8h[24:1],2h[24:1],{12}6qq7[6:1],{24}6,3,,3,
{8}6,1,{12}2qq7[4:1],{24}2,7,,7,{8}2,5,6>3[12:1],8/7,
6/2q6[12:1],1,{12}2/7,{24}8,8,,1-5[12:1],7,2<6[24:5],8>4[6:1],3,,1b,{48},,,,,,,,,,,,,,,,,,5,
6,7,8,1,2,{8}3/5-1[12:1],4/6,5/7<4[12:1],8,{12}7/2q3[6:1],{24}1,1,,,{8}2/6,
7,8-4[12:1],6/5,8/3,1,{12}6/8qq4[4:1],{24}2,2,,,{8}4/8,
2,1-5[12:1],{24}2/6,,6,{8}1<6[12:1],8,5-1[12:1],2,
{12}1/5,{48}2,3,{8}4,5/8-4[12:1],7,{12}3/8>3[12:1],{24}2,2,,,{8}8/5h[12:1],{24}6h[12:1],,4,
{12}7h[12:1],{24}5,8,{48},,,,7/4-8[12:1],6,5,4,,,{8}2,{12}4/1<6[12:1],{24}3,3,,,{8}1/5qq8[24:5],2,
5/3,1,{12}2,{24}2,3,,3,{12}4,{24}4,5,,5,,,6h[24:1],5,,,{8}7/8-4[12:1],
2/1,{12}1/8b,{24}3<6[12:1],3,,8-4[12:1],,,{12}3,{24},8,,,2h[24:1],3<6[12:1],,,{8}1/8-4[12:1],
3,{12}8b,{24}2pp1[24:13],2,,8qq1[12:5],{4},,,{48}8/2,
7/3,6/4qq1[24:7],5v8[8:1],{4},{16},,{24},{48}7,6,{24}5,,,,,2,
4,3,5,4,6,{8}5h[12:1],{24}6>2[4:1],,4<8[6:1],{4},,{48}3,
4,5,6,7,8,{24}5b/1,,7b/3bqq5[24:13],
E
