&title=ヨスガノソラ メインテーマ -遠い空へ
&artist=市川淳
&first=0.89
&des=liansuki vs Tttingsama
&des_5=liansuki vs Tttingsama
&lv_5=12+
&inote_5=(110){4},,,,3>4[2:3],
6h[2:3],{1},{4},,{48}6<5[2:3],
,,,,,,,,,,1h[48:73],{1},{4},,,{64},,{32}3/7,
{96},,,,,,,,,,,,,,,,,,,1>3[96:11]/6p8[96:17],{4},{16},,,{64},,{96},{4}4p1[4:1],
{1}4b/5b-8[8:5],
{48},2/8,{96},,,,,,,,,,,{32}2,{96},,,,,,,7/1,,,,,,,,,,,7,,,,,,,,,,,3,,,,,,,,,,,{48}6,,,,,,,{4}5/4h[2:1],
,5-1[8:1],{2}6/5qq8[2:1],
{4},1<6[8:1],{8}2/1pp5[4:1],,,8,
8>3[8:1],7,{4}6/8qq4[4:1],{8},2,2,1/5,
3/7,6/2,{4}4qq2[8:1]/8qq6[8:1],,5pp6[8:1]/1pp2[8:1],
,1>5[4:1],5<1[4:1],1V35[4:1],
5V71[4:1],1qq6[8:3]*pp4[8:3],,,2h[8:1]/8h[8:1],
1h[8:1]/7h[8:1],8/3>6[2:1],3h[8:3],
,2<5[2:1],{2}2h[8:3],
{8}1,6/2,{4}7/3h[4:1],{8}8<6[8:1],1>3[8:1],8-4[8:1],1-5[8:1],
8<2[2:1],1,{4}8,,8h[8:3],
,7/1V35[4:1],8/1V75[4:1],1,
2h[4:1],4<1[4:1],{8}2,3,{4}5-1[8:1],
{1}5b/8bp5[1:1]*q3[1:1],
{16},,,,,,,,4,6,5,6,3,5,4,5,
2,4,3,4,{4}1>5[4:1],1/5qq8[8:3],1,
{8}6h[8:3],,,1,2/8,2,{4}1/7<4[8:1],
2>5[8:1],{8}1,8,{4}7h[4:1],{8}6,4/5,
{4}4/3h[4:1],8-2[8:1],{8}8-6[8:1],4,8-4[8:1],2,
{4}8/1-6[8:1],{8}1-4[8:1],5,1-5[8:1],7,{4}1/8,
{8}6/4h[8:1],1,3/5h[8:1],8,{4}7/2h[4:3],3,
7,{16}5,3,4,3,6,4,5,4,7,5,6,5,
{8}8-6[8:1],4-2[8:1],8,4,5<7[8:1],1>3[8:1],5,1,
8h[4:1],5,2h[4:1],3,5h[8:1],6,5/4,2/6,
1v4[8:1],6,7/1v6[8:1],8,3/1>4[8:1],2,7/1qq6[2:1],8,
1,5,4,3,2h[8:1],5h[8:1],{4}1,
{8}2-4[8:1],1,8-2[8:1],7,{4}6h[4:1],{8}8-6[8:1],1,
2-8[8:1],3,4-2[8:1],5,6-4[8:1],7,{4}8,
{8}2/7,4/3,4/5qq3[8:1],5/6,7/5pp7[8:1],6,3/5-1[8:1],4,
7/5,6,{4}1/5,{8}2/6,8/4,2/6,8/4,
2/6,1/5,{4}4/8w4[4:1],{32},,,,,,,,,,,,,,,,2,
3,{16}4h[16:11],{4},,{16},,{32}7,6,{16}5h[16:11],{4},,{16},,{32}3,
2,{16}1h[16:3],,,{4}3h[4:1],
5h[4:1],7h[4:1],3,1w5[4:5],
{1}1b,
{2},3h[8:3]/7h[8:3],
{8}2-4[8:1]/6-8[8:1],1/5,{4}6-4[8:1]/2-8[8:1],2-6[8:1]/6-2[8:1],2/6,
{2}4h[8:3]/5<4[2:1],{8}4,3,2,1/6,
7/2,8/3,{4}2qq5[8:3]/7pp4[8:3],{2}2/7,
{96},3,,,,,,,,,,,,,,,,3,{16},,,{64},,{96},{12}3h[24:47],{48},,,,,,,,,,,,,,,{16}8,{4},{16},,{24},6h[12:13],
{1},{16},,,{64},,{96}4,
,,4,,,5b,
E
