&title=SMILE HD
&artist= new star
&first=0
&lv_5=14+
&des_5=new star
&inote_5=
(125){16},,,6xq8[0.48##3.68],{32},,,3xv8[0.48##3.28],{64},,,,,,,,,1xpp1[0.48##3.15],,,,,,,,,,,,,,,,,{32},{1},{4},,{16}C,
{4},,,{32},6x,
{64},,,1x/5x,,,,,{16}3x,{64},5x/1x,,,,,{32}5x,,2x/1x,,5x/6x,{64},8x,7bx,6bx,{16}5bx,{64},,,,,,3x,4bx,5bx,6bx,,,,,,,,,,8x,
7bx,6bx,{32}5bx,{64},,,,,,,,3x,4x,5x,6bx,,,,,,,,,,4x,5bx,4x,,,,,,,5x,4bx,{8}5x,{64},2bx,3x,4x,5x,6bx,,,,,,,,,8x,7bx,
6bx,5bx,,,,,,,,,,2bx,3x,4x,{32}5x,{96},,,,,,,,,,{48}Cf,{64}8x,7bx,6x,5bx,,,,,,,,,,2bx,3x,4x,{8}5x,{24},6bx,4x,6x,4x,6x,
4x,6bx,{192},,,,,,,,,,,,,,,,Cf,,,,,,,5bx,,,{64}4x,3x,{8}2bx,{64}1bx,2x,3x,4bx,,,,,,,,,,7bx,6x,5x,4x,3bx,,,,,,,,,1bx,2x,3x,4x,{32}5bx,{64},,,,,,,,5bx,
4x,3x,2x,{16}1bx,{64},,,1bx,2x,3x,4x,5x,,,,,,,,,7bx,6x,5x,4x,{16}3bx,{64},,,,,1bx,2x,3x,{8}4bx,{64},,7bx,6x,5x,4bx,3bx,2bx,,,,,,,,1bx,
2x,3x,4bx,5bx,{16}6bx,{64},,,,7bx,6x,5x,4x,3x,2x,,,,,,,,,{32}6xh,,5xh,,6xh,,5xh,,1xh[64:145]/Cf,{16}4x,{1},,{16},,{64},Cf,
,,{16}5x,
,4x,,5x,,,{64},{192}7/Cf,1xh[192:227],{16},,,{64},{192},{64}3/Cf,,,,,,,,,,,,,{16}7/Cf,{32},,,,,4/Cf,
{64},,,,,,,,,,,7/Cf,,,,,,,,,,,{32}6x/Cf,{64},,,,,,,,,8/Cf,,,,,,,,2/B2f,,,,,{32}2x,,2x,,2x,2x,2x,
2x,2x,2x,2x,2x,2x,{48}2x,,2x,,2x,,2x,,2x,{96},,,{32}2x/Cf,Cf,2x/Cf,Cf,2x/Cf,Cf,2x/Cf,Cf,2x/Cf,Cf,2x/Cf,,2,,,,7,{64},,,,,,,2,
,,,7,,,,3/Cf,,,,,,,,,,3/Cf,,,,,,,,,,,{16}3/Cf,,,B1f/B6f/Cf/B7f/D7f/D8f/A6f/A8f/D1f/A1f/D2f/A2f/D3f/A3f/E4f/B4f/B5f/E6f/E7f/A7f/E8f/B8f/B3f/B2f,{64},,,,,,,,,,,,,,,,,,,7,
,,,,,,,,,,{32}3,{64},,,,,5,,,,,,,{16}7/Cf,{64},,,,,,,7/Cf,,,,,,,,,,,,7/Cf,,,,,,,,,,,,A3f/Cf/B6f/B7f/E7f/E8f/E2f/B2f/E3f/E4f/B4f/B5f/B1f/E6f/D7f/B8f/D1f/E1f/A7f/D8f/A8f/A1f/D2f/A2f/D3f/A6f/B3f,
{4},{16},7,{48},,,,,,3,,,,,,,6,,,,,,1,{192},,,,,,,,,,,,,,,,{64}7,,,3/2,,,,,,,,2,
,2,,2,,2,,2,,,,,,,{32}7,{64}7,,,7,,,{32}7,{16}7,{64},,,,,,,,,6/3x,,,,,,,,,{32}2bxh[64:1],{64},,,,,,,5bx,,,,,,,,5bx,
,,{32}5bxh,,,{16}5bx,{32},,,5bxh[64:25],,,,,,,,,,,,,,,,,,3<3[64:39],{4},,,{16},,,{64},A2f/B3f/B1f/Cf/B6f/B8f/B7f/E7f/E6f/B5f/B4f/E4f/D4f/B2f/D2f/A1f/D1f/D8f/A7f/D7f/A6f/D6f/A5f/D5f/A4f/A3f/D3f/E2f/A8f,
{4},{16},{32}7>7[64:39],
{4},,,{16},,{64},E1f/D1f/A1f/D2f/E2f/B2f/B3f/E4f/E3f/A2f/D3f/A3f/D4f/A4f/D5f/E5f/B6f/B7f/D6f/B5f/E6f/A6f/D7f/E7f/Cf/B4f/A5f/A7f/D8f/A8f/B8f/B1f,
{4},{16},{64},3,4,5,{32}6,{64},,,,,,7bx,6x,5x,4bx,,,,,,3bx,4x,5x,{32}6bx,{64},,,6bx,5x,4x,{32}3bx,
{64},,,,3bx,4x,5x,6bx,,,,6,5,4,{32}3/2h[4:1],{64},,,,,,,,,,,,,,,,,,,2,,,,,,,,,,,,,,7,,,,4,,,,,,4bx/Cf,,,,,,,{32}4bx/Cf,
{64},,,,,,,,,4bx/Cf,,,,,,,,,,,{8}4bx/Cf,{32},4bxh[32:11]/Cf,{4},,{16},,,{32},3x,
{64},5x,,,3x,5x,,3x,5x,,,3x,,3x,,4x,,,,,,,,,,2bx,,,,,,,,,,,,5/Cf,,,,,,,,,,,,,,,,3/Cf,
,,,,,,,,,,{16}7/Cf,{32},,,6/Cf,,,,,{8}4/Cf,{64}4bx/Cf,,,,,,,,,,,,,,,Cf/4bx<4b[0.03##0.57],
,,,,,,,,,,,,,,,,,,{32}Cf/4bx<4b[0.06##0.63],{4},{16},{64},Cf,,,,,{32}Cf,{64},,,,,,,,,,,,,,,,Cf,
,,,,,,,,,,,,,,,,,,1bx,2bx,3bx,{32}4bx-1b[0.06##0.48],,,,,,,,,{8}6bxp1b[0.06##0.51],{64},,,,,,,,,,,,,7bx>8-5b[0.06##0.51],,,,,,,,,,,,,,,,,,,,2bx-5v8b[0.06##0.66],
{4},{16},{64},,,3bx-7-4b[0.06##0.66],{4},{16},{32},{16}Cf,
,,1bx,{64},8bx,,,,,,,,,,,,,,,,8x,{32}Cf/B8f/B7f/B6f/E6f/B5f/E5f/B4f/E4f/B3f/B2f/B1f,,,,,,,,,,7bx-3<4b[0.06##0.6],,,,,,,,,,,{16}3bxv8<7b[0.06##0.6],
{32},,,,,,,,,4bx-1-3b[0.06##0.48],,,,,,,,,,6bx>3-7b[0.06##0.6],{64},,,,,,,,,,,,,,,,,,,6bx-2<1b[0.09##0.51],
,,,,,,,,,,,,,,,,,,,Cf/5bxv8>1b[0.06##0.48],,,,,,,,,,,,,,,,,,,{32}7bx,5bx,3bx,1bx,{64},,,,4bx,5bx,
{32}6bx,{64},,,,6bx,5bx,{8}4bx,{32}4x,5x,{64},4x,,,{16}5x,{32}4,5,{64}4,,,A3f/D4f/A4f/D5f,,,3bx,4bx,5bx,,,5bx,4bx,3bx,,,,,,,{16}3x,{32},5,,3x,
{64},3bx,4bx,5bx,,,,,,5bx,4bx,3bx,{16},{64}A2f,,,4x/2x,,,,,,,{32}3x,{64},,,3x,,,,,,,{32}3x,{64},,,,3bx,4bx,{32}5bx,{64},,,5bx,4bx,3bx,{32},,B8f/B7f/B6f/B5f/B4f/E4f/B3f/B2f/B1f/E8f/E6f/E2f/Cf,{64},,,,2,
,,4,,,,,{16}2,{32}4x,2x,4x,2x,,4x,2x,4x,{64},2x,,4x,,A4f/D5f/A5f/D6f/D4f,,,{16}2x,{64},4x,,,,,{32}3,,,{16}5,{64},6,,,,,{32}4,
{64},,,2,,,,,4,,,,,5,,,,,{32}3,{64},,,4,,,,,{16}3,{64},1,,,,,{32}5,{64},,,4,,,,,3,,,,,2/Cf,,,,,{32}2,{64},,,3,
,,,,{16}6,{64},2,,,,,{32}4,{64},,,2/7x,,,,,4/1x,,,,,8,,,,,{32}2,{64},,,4/7x,,,,,{16}6,{64},5/3x,,,,,{32}6,{64},,,4,,,,,3/Cf,
,,,,2,,,,,{32}2,{64},,,6,,,,,{16}4,{64},6,,,,,{32}5,{64},,,4/1x,,,,,5,,,,,6/7x,,,,,{32}2,{64},,,2,,,,,{16}5,
{64},8,,,,,{32}6,{64},,,3,,,,,2,,,,,2/Cf,,,,,{32}2/5x,{64},,,5,,,,,{16}7,{64},6,,,,,{32}4,{64},,,3,,,,,3/5x,,,,,4,,,,,{32}6/2x,
{64},,,5,,,,,{16}4,{64}Cf,3/5x,,,,,{32}4,{64}B1f/B8f/Cf/B5f/B4f/E4f/B3f/B2f/E8f/E7f/E6f/E2f/B7f/B6f/E3f,,,5,,,,,4,,,,,,,5b-8b[0.03##0.51],,,,,,,,,,,,,,,,,{32}Cf,,,1b-4-2b[0.06##0.42],
,,,,,,,Cf,,,{16}6b-3<4b[0.06##0.36],{32},,,,,Cf,,,{8}3b<4-1b[0.06##0.42],{64},,,,,,,,Cf,,,,,,,3b>2-7b[0.03##0.45],
,,{32},,,,,,Cf,,,{16}3b>2v4b[0.06##0.39],{64},,,,,,,,,,,Cf,,,,,,4b<5-8b[0.06##0.48],,,,,,,,,,,,,,,,,{32}Cf,,,2b<1-4<5b[0.09##0.33],
,,,,,,Cf,,,{16}5,{64},2,,,,,{32}3,{64},,,6,,,,,4/2x,,,,,3,,,,,{32}1,{64},,,8/5x,,,,,{16}7,
{64},6/3x,,,,,{32}8,{64},,,4,,,,,{32}3/6x,,,2,{64},,,6,,,,,6/3x,,,,,4,,,,,{32}1,{64},,,2/5x,,,,,{16}6,{64},5/2x,,,,,{32}4b/6x,
{64},,,3bx/1x,,,,,4bx/6x,,,,,6bx/2x,,,,,{32}6bx/4x,{64},,,5bx/7x,,,,,{16}8bx/4x,{64},2bx/5x,,,,,{32}4bx/2x,{64},,,7bx/4x,,,,,6bx/3x,,,,,4bx/2x,,,,,{32}4x/3bxw7b[0.12##14.1],{1},{4},{16}5x>1-4>1-4>1-4[0.15##11.61]`2xh[64:1],
{1},,,,,,{16},,{64},7x,
,Cfh[64:149],,,{32}7x,{64},,,7x,,,,,7x,,,,,7x,,,,,{32}7x,{64},,,7x,,,,,{16}7x,
{64},7x,,,,,{32}7x,{64},,,7x,,,,,7x,,,,,7x,,,,,{32}7x,{64},,,7x,,,,,{16}7x,{64},7x,,,,,{32}7x,{64},,,7x,,,,,7x,,,,,7x,,,,,{32}7x,
{64},,,7x,,,,,{16}7x,{64},7x,,,,,{32}7x,{64},,,7x,,,,,7x,,,,,7x,,,,,{32}7x,{64},,,7x,,,,,,,,,,,,,,,,,,,,7xh[32:1]/Cfh[64:135],
,,,,7xh[32:1],,,,,7xh[32:1],,,,,{32}7xh[32:1],{64},,,7xh[32:1],,,,,{16}7xh[32:1],{64},7xh[32:1],,,,,{32}7xh[32:1],{64},,,7xh[32:1],,,,,7xh[32:1],,,,,7xh[32:1],,,,,{32}7xh[32:1],{64},,,7xh[32:1],
,,,,{16}7xh[32:1],{64},7xh[32:1],,,,,{32}7xh[32:1],{64},,,7xh[32:1],,,,,7xh[32:1],,,,,7xh[32:1],,,,,{32}7xh[32:1],{64},,,7xh[32:1],,,,,{16}7xh[32:1],{64},7xh[32:1],,,,,{32}7xh[32:1],{64},,,7xh[32:1],,,,,7xh[32:1],
,,,,7xh[32:1],,,,,{32}7xh[32:1],{64},,,,,4,,,,,{32}1,{64},,,5,,,,,4,,,,,3,,,,,{32}Cfh[4:3]/1-7-2-4-6[0.12##1.32],{4},,,{32},7/4x,
{64},,,6/4x,,,,,5,,,,,4,,,,,{32}3/2x,{64},,,4,,,,,{16}1,
{64},8/5x,,,,,{32}5,{64},,,3,,,,,,2,,,,,{32}1,{64},,,4b/2x,,,,,4b/2x,,,,,2b/4x,,,,,{32}4b/2x,{64},,,2b/4x,,,,,{16}2b/4x,{64},5,,,,,{32}8/6x,
{64},,,1,,,,,3,,,,,6,,,,,{32}8,{64},,,1/5x,,,,,{16}2,{64},5,,,,,{32}7b,{64},,,7b,,,,,4b/7x,,,,,7b/4x,,,,,{32}5b,{64},,,5b,
,,,,{16}4b/7x,{64},5b,,,,,{32}2,,,{16}8,{64},2,,,,,{32}6,{64},,,5,,,,,2b,,,,,5,,,,,,3b,,,,,8,,,,,7b,,,,,{32}5,
{64},,,1b,,,,,{16}8b,{64},3b,,,,,{32}6b,{64},,,2b,,,,,5b,,,,,3b,,,,,{32}1b,{64},,,6,,,,,{16}4,{64},8,,,,,{32}7,
{64},,,3,,,,,4b,,,,,1b,,,,,{32}6b,{64},,,5b,,,,,{16}1b,{64},8b,,,,,{32}4b,{64},,,2/5h[32:13],,,,,3,,,,,4,,,,,{32}6,{64},,,7,
,,,,{16}8,{64}B3f/B2f,5bx,6bx,7bx,{16}8bx,{64},,,,,,5bx/B3f/B2f,6bx,7bx,8bx,,,,,,,,,,B7f/B6f,1bx,2bx,3bx,4bx,,,,,,,,,B7f/B6f,1bx,2bx,3bx,{16}4bx,,B2f/B3f/B7f/B6f,
{64},,,,,B6f/B7f/Cf/B2f/B3f/B8f/B1f/B4f/B5f,,,,,,,,,,,,,,,{16}B7f/B6f/Cf/B8f/B1f/B2f/B3f/B4f/B5f,{64},,,,,,,,,,,,,B7f/B6f/B8f/B1f/B2f/B3f/Cf/B5f/B4f,,,,,,2x,,,,,8x,,,,,1x,,,,,{32}4bx,{64},,,3bx,
,,,,{16}7bx,{64},2bx,,,,,{32}6,{64},,,5x/2x,,,,,4x,,,,,3bx,,,,,{32}1bx,{64},,,1/3,,,,,{16}4,{64},5/4,,,,,{32}1/3,{64},,,7x,,,,,3x,
,,,,1x/5x,,,,,{32}3x,{64},,,7x,,,,,{16}5x/2x,{64},2x,,,,,{32}6x,{64},,,5,,,,,3,,,,,7,,,,,{32}4,{64},,,1/6,,,,,{16}4,
{64},7,,,,,{32}6/4,{64},,,5,,,,,4,,,,,6/2,,,,,{32}6b,{64},,,2b/6b,,,,,{16}2b,{64},6b,,Cf,,,{32}2b/6b,{64},,,7,,,,,4,,,,,1/6,,,,,{32}4,
{64},,,7,,,,,{16}6/4,{64},5,,,,,{32}4,{64},,,6/3,,,,,1x,,,,,2x/4x,,,,,{32}5x,{64},,,4x,,,,,{16}3x/5x,{64},7,,,,,{32}4x,
{64},,,1x/6x,,,,,4x,,,,,7,,,,,{32}6bx/4bx,{64},,,5bx,,,,,{16}4bx,{64},6bx/3bx,,,,,{32}1bx,{64},,,2bx/4bx,,,,,5bx,,,,,4x,{32}Cf,,3x/5x,,,,,,7/2h[#5.190002],
{64},,,5b,,,,,7,,,,,6b,,,,,{32}4,{64},,7<4<7>8<7[0.21##4.26],Cfh[16:15],{4},,{16},,,{64},,,,
,,,,,,,,,,,,,Cfh[64:9],,,,,,,,,,,{8}Cfh[64:9],{64},,,Cfh[64:9],,,,,,,,,,,{32}Cfh[64:9],
{64},,,,,,,,,Cfh[64:9],,,,,,,,,,,{16}Cfh[64:9],{64},,,,,,,Cfh[16:5],,,,,,,,,,,,,,,,,,,,,,B2f/B1f/B8f/B7f/E7f/B6f/E6f/B5f/B4f/E4f/B3f/E3f,,,,,,7,,,,,3,
,,,,4,,,,,{32}5,{64},,,2,,,,,{16}7,{64},4,,,,,8/7,Cf,,,,,,,,,{32}1/2,Cf,,,,1h[64:13]/8h[64:13],{64},,,,,,,,,,,Cf,
,,,,{16}4,{64},6,,,,,{32}2,{64},,,4,,,,,7b,,,,,2b,,,,,{32}4b,{64},,,1b,,,,,{16}8b,{32},,,1-3[0.21##0.09]/8-4[0.21##0.09],,,,Cf,
,,,,{8}1-5[0.18##0.09]/8-6[0.18##0.09],{64}Cf,,,,,,,,,,,6,,,,,1,,,,,5,,,,,{32}4,{64},,,1,,,,,{16}8,{64},6,,,,,,,7bx/8bx,
Cf,,,,,,,,,1bx/2bx,Cf,,,,,,,,1bxh[32:9]/8bxh[32:9],,,,,,,,,,,,,,,,,,,{32}Cf,{64},,,,,,8bx,1bx,,,,7bx,{16}2bx,{64}6bx,3bx,,,,5bx,{32}4bx,
{64},,5bx,4bx,,,,6bx,{16}3bx,{64}7bx,2bx,,,,8bx,{32}1bx,{64},,7bx,2bx,,,,6bx,,3bx,,,{32}5bx,4bx,{64},4bxh[64:13],,,,,,,,,,,,,,,,,,4,,,,,{16}7,
{64},6,,,,,{32}2,{64},,,5,,,,,3,,,,,5,,,,,{32}8,{64},,,4,,,,,7bxh/8bxh,Cf,,,,,,,,,,,1bxh/2bxh,Cf,,,,,,,,,,1bxh[64:13]/8bxh[64:13],,,,,,,,,,,,,,Cf,
,,,,,7,,,,,{16}5,{64},8,,,,,{32}1,{64},,,2,,,,,5,,,,,3,,,,,{32}8,,,,1b-3b[0.21##0.09]/8b-4b[0.21##0.09],,,,,{16}Cf,
{32},,,1b-5b[0.18##0.09]/8b-6b[0.18##0.09],{64},,,,,,,Cf,,,,,,,,7,,,,,{16}5,{64},6,,,,,{32}4/1,{64},,,3,,,,,2,,,,,8/1,,,,,{32}4,
{64},,,,,,,7bx/8bx,{16}Cf,{64},,,,,,2bx/1bx,Cf,,,,,,,,,,,{32}1bxh[64:13]/8bxh[64:13],{64},,,,,,,,,,,,Cf,,,,,7x,,,,,{32}5x,{64},,,1x,
,,,,{16}3b,{64},4b,,,,,{32}5b,{64},,,4b,,,,,4b,,,,,5b,,,,,{32}8bh[32:13]/Cfh[32:11],{4},{16},,,{64},4,
,,,,{32}7,{64},,,6,,,,,2,,,,,5,,,,,{32}3,{64},,,5,,,,,{16}8,{64},4,,,,,7bxh/8bxh,Cf,,,,,,,,,,,1bxh/2bxh,Cf,,,,,,,,,,1bxh[64:13]/8bxh[64:13],
,,,,,,,,,,,,,Cf,,,,,,7,,,,,{32}5,{64},,,8,,,,,1,,,,,2,,,,,{32}5,{64},,,3,,,,,{16}8,
,1bx-3b[0.21##0.09]/8bx-4b[0.21##0.09],{32},,,Cf,,,,,{8}1bx-5b[0.18##0.09]/8bx-6b[0.18##0.09],{64},Cf,,,,,,,,7,,,,,{32}5,{64},,,6,,,,,4/1,,,,,3,,,,,{32}2,
{64},,,8/1,,,,,{16}4,{64},,,,,7bx/8bx,{32}Cf,{64},,,,,,,,2bx/1bx,Cf,,,,,,,,,,,{16}1bxh[64:13]/8bxh[64:13],{32},,,,,Cf,{64},,,7x,
,,,,{16}5x,{64},1x,,,,,{32}3b,{64},,,8b,,,,,5b,,,,,4b,,,,,{32}1b,{64},,,5b,,,,,{16}8bh[32:13]/Cfh[32:11],{4},{16},,{64},,,8,
,,,,7,,,,,8,,,,,{32}7,{64},,,8,,,,,{16}7,{64},8,,,,,{32}7,{64},,,8,,,,,7,,,,,8,,,,,{32}7,
{64},,,8,,,,,{16}7,{64},8,,,,,{32}7,{64},,,8,,,,,7,,,,,8,,,,,{32}7,{64},,,8,,,,,{16}7,{64},6,,,,,{32}5,
{64},,,6,,,,,5,,,,,6,,,,,{32}5,{64},,,6,,,,,{16}5,{64},6,,,,,{32}5,{64},,,6,,,,,5,,,,,6,,,,,{32}5,{64},,,6,
,,,,{16}5,{64},4,,,,,{32}3,{64},,,4,,,,,3,,,,,4,,,,,{32}3,{64},,,4,,,,,{16}3,{64},4,,,,,{32}3,{64},,,4,,,,,3,
,,,,4,,,,,{32}3,{64},,,4,,,,,{16}3,{64},2,,,,,{32}1,{64},,,2,,,,,1,,,,,2,,,,,{32}1>4[0.33##0.6],{4},{16},{64},,,Cf,
,,,,,,,,,,,,,,,1>6[0.57##0.57],{4},,{16}Cf,
{32},,,,,1V37[0.42##0.57],{64},,,,,,,,,,,,,,,,,,,Cf,,,,,,,,,,,,,,,,,,1-3<4v7[0.45##0.66],{4},{16},{32},{8}Cf,
{64},,,,,,,,,,,1>4<5v8<7[0.57##0.54],{4},{16},{4}Cf,
{32},,,1h[64:43],{4},,{16},,{64},Cf,,,,,{32}7,{64},,,2,,,,,6,
,,,,4,,,,,{32}1,,,{4}6h[32:23],{32},,,,,,,,,,,,,,,Cf,
{64},,,5,,,,,1,,,,,2,,,,,{32}4,{64},,,8b,,,,,{16}6,{64},2h[64:45],{4},,{16},,,{32}Cf,
{64},,,5,,,,,7,,,,,2,,,,,{32}6,{64},,,4,,,,,{16}1,{64},5,,,,,{32}1h[32:23],{4},,{16},,,Cf,
{32},4,{64},,,1,,,,,{16}8,{64},6,,,,,{32}4,
{64},,,3,,,,,1bx,2bx,3bx,4bx,5bx,6bx,7bx,8bx<5-8>1-4>1-5-7-2-5>4b[2.28##2.79],{1},,{4},,{16},{64},,,Cf,
E
