&title=万通筋骨贴
&artist=痛了来一贴
&first=0
&des=贴我脸上
&lv_7=贴
&inote_7=(122)
{1},
{8}Cf/B5/B6/2b,2bh[4:1],,,
{8}A2f/B2/E2/6b,6bh[4:1],,,
{8}1bp5[16:1]b/8b<6[16:1]b,4b/5b,{32}E8f,E7,{16}E6,,,
{24},
{8}1,1,1,
{16}34,3,3-6[16:1]b/4,,2h[8:1],,{48}E2f/3bx,B1,B8,{16}E8,,,
(120)
{8}78,1,8V62[4:1]/3h[4:1],,8-3[8:1]b,,8,,
{8}56,B8/E8/B4/E4,5pp4[4:1]/6,,1-4[8:1]b/5,,1bx,,
{24}7-4[8:1],8,7,8,7,8,7,,,,,,{32}2-5[8:1]b,1,2,1,2,1,2,1,2b<4[2:1]*<7[4:1]*<8[6:1]*<6[3:1]*<5[12:5],,,,,,,,
{8}3,2,3-7-5-1[8:3],2,3b,,,,
{48}1b<8-4<5[16:3]b/8b,2b/7b<6-2>3[48:8],3b/6b,4b/5b,
