&title=BATTLE NO.1
&artist=TANO*C Sound Team
&first=0
&lv_6=14+
&des_6=SMS Fumen Team "?"
&inote_6=
(200){4},,,,2h[8:1]/3h[8:1],
6h[8:1]/7h[8:1],4h[8:1]/5h[8:1],1h[8:1]/8h[8:1],
{8}5h[16:1]/1h[16:1],6h[16:1]/2h[16:1],7h[16:1]/3h[16:1],8h[16:1]/4h[16:1],{4}1-6[8:1]/5-2[8:1],5b/1b,
2x<7[8:1]/7x<4[8:1],2x/7x-1-3-5[16:3],7x/6x-8-3[8:1],{8}6x,5x,
{4}5x-2[8:1],6x/5x-8[8:1],4x/5x-1[8:1],5x/6x,
7x-5[8:1]/4x-1[8:1],7x/4x-6-8-2[8:3],2x,3x-1-6[8:1],
4x-7[8:1],4,5x-2b[8:1]/8x-4[8:1],5bx/8bx,
7x>2[8:1]/2x>5[8:1],2x-8-6-4[8:3],4x,{8}3x-1-6[16:3],2x,
{4}3x,{16}5z1[0.3##0.15],,{8}6,2s6[8:1],3,{4}2,
{8}8/4,3/7,6/2,5/1,{12}1,3,2,8,6,7,
{2}1h[4:3],{4}8-4[8:1],8b,
8/1V35[4:5],8,7,7,
6,6,7,{8}6,7,
{4}1/8V64[4:5],1,2,2,
3,3,2,{8}1,8,
1,2,3,4,8,7,6,5,
{12}1,1,1,7,7,7,3,3,3,5,5,5,
{16}3/7,2,1,8,7,6,5,4,7/3,6,5,4,3,2,1,8,
{4}3v8[8:1]/7-4[8:1],3-6[8:1]/7-2[8:1],{2}7/3/Cf,
{8}1-6[8:1],2,3,4-1[8:1],5,6,7-4[8:1],8,
1,2-6[8:1],3/1,2,,7x,8b/1b,8b/1b,
7-2[8:1],4-1[8:1],7,4,6,3,5,{16}4,3,
2,1,2/8,3/7,{8}4/6,{16}B8,B7,B6,B5,{8}B4,{32}2,3,2x,3x,2,3,2x,3x,
{8}2x,{16}7,6,{4}5/4-2[8:1],{8}4,5-7[8:1],1,5/8-3[8:1],
8,8x/4-7[8:1],4,4,,6x/2x,5b/1b,5b/1b,
2-6[8:1],8-5[8:1],2,8,3,4,{16}2,5,3,4,
1,6,3,4,8h[2:1],7h[16:7],,,,,,,,,,,{4}8b/1b,
{16}7h[8:1]/5h[8:1],,,6h[8:1]/4h[8:1],,,{8}5/3,2-5[8:1]/4-8[8:1],1,
{4}2/4,{16}7h[8:1]/4h[8:1],,,6h[8:1]/3h[8:1],,,{8}5/2,{16}1p5[8:1],2,3,4,
{4}1,{16}4h[8:1]/2h[8:1],,,5h[8:1]/3h[8:1],,,{8}4/6,7<4[8:1]/5-8[8:1],8,
{4}7/5,{8}5x/1x,2x/6x,{2}7x-4[8:1]/3x-8[8:1],
{4}1xh[8:1]/5xh[8:1],{16}2-5[16:1],,,6-1[16:1],,,{8}3-8[16:1],{16},7-4[16:1],,,1x-5b[16:1],
,,8x-3b[16:1],,,{8}2x-6b[16:1],{16},7x,,,{8}8,8/4,
{16}3,7,2,6,1,5,2,6,{32}3b,4,5,6,7,8,1,2,3,4,5,6,7,8,1,2,
{1}3/B8h[2:1]/B7h[16:9]/B5h[8:5]/B6h[16:11]/E7fh[4:3],
{8}1-5[8:1],5V38[8:1],1,6,7-4-1[8:1],1-6[8:1],7,2,
3>8[16:1],5,3<6[16:1],7,3,1,8,7,
5/6-2[16:1],7,6/4-8[16:1],3,5-1[16:1],6,5/3,2,
1b/2b-6[16:1],8,2/1-5[16:1],{24}4x,3x,2x,{8}1b/8b-4[16:1],7,8/1,{24}5x,6x,7x,
{8}8/1,2/1,2/3,{16}4/1,5/8,{8}6/7,{32}A8/A5,D1/D5,A1/A4,D2/D4,A2/A3,E2/E4,B1/B4,B8/B5,{8}E8f/E6f,
{16},,5,4,6,3,{8}7,8b/2b,3b/4b,{24},,{6}5b/7b,
{8}6b/1b,7-4[16:1],8,7,3-8[16:1],4,3,5,
1,{24}5b/1b,2x/6x,3x/7x,{8}4x/8x,{24}6b/2b,3x/7x,4x/8x,{8}5x/1x,{24}5b/1b,2x/6x,3x/7x,{4}4x/8x,
{8}3/1<7[8:1],3,2/1-6[8:1],2,3/1-5[8:1],3,2/1,2,
3,4,2,5,2/5,{16}5/2,6/3,{8}7/4,8,
,3/E3,4/E4,5/E5,6/E6,7/E7,8/E8,1/E1,
8/2,{16}1b,1b,{8}1b,{16}1b,1b,{8}1b,8/2,{4}8/2,
{8}6/8>2[8:1],6,7/8-3[8:1],7,6/8-4[8:1],6,7/8,7,
6,5,7,4,7/4,{16}4/7,3/6,{8}2/5,1,
6/2,{16}6/2,5,{8}4,8,2,{16}2/6,3,{8}4,1,
1,{32}8,7,6,5,{8}4,{32}2,3,4,5,{16}6,E8,B8,B1,{4}E2,
{32}E7,E6,{16}4xh[16:7]/E5,,,,,,,{8}8h[8:1],1h[8:1],2h[8:1],3h[8:3],
{32},,,,,,,,6,5,{16}4h[16:3],{32},,,,7,6,{16}5h[16:3],{32},,,,6,7,{16}8h[16:3],,,{2}1bh[4:1],
{8}7/2,6,3,4/5,
,7h[4:3],8,6,1,5,2-6[8:1],4,
{4}2/Cf/3-7[8:1],3/C/4v1[8:1],4/Cf/5v8[8:1],5/C/6v3[8:1],
6/Cf/7v2[8:1],7/C/8-4[8:1],8/Cf/1-5[8:1],1/C/2-5[8:1],
{8}2/8-4[8:1],1,8/2-6[8:1],1,2/8-3-1[4:1],1,{4}8,
4bqq4b[16:3],B5f/4bpp4b[16:3],{2}B3f,
{4}2b-5b[8:1]/6b-1b[8:1],6b/2b,4b-1b[8:1]/8b-5b[8:1],4b/8b,
6b/2b,5b-1b[8:1]/7b-4b[8:1],7b/5b,{8}2b/4bx,2b/4bx,
{4}5b/1b<6b[8:1],1b/5b,5b/1b>4b[8:1],1b/5b,
{8}6b/5b,4b/2b,3b/7b,1b/5b,6b-3b[8:1]/2b-7b[8:1],4b/8b,{4}Cf,
1b/5b,{8}3b/7b,5b/7b,{4}4b-6b[8:1]/8b-2b[8:1],4b/8b-4b[8:1],
8b/3b-1b[8:1],3b/5bw1b[8:1],5b,{8}3b/7b,3b/5b,
{4}5b/1b,{16}1b<6b[8:1],2b,{8}3b,{4}1b,{16}2b,3b,4b,5b,
{4}6b/Ch[2:1],,,Cf/B7f/B6f/B5f/B4f/B3f/B2f/B1f/B8f,
{16}3>8[4:1],4,3,4,{4}3,{8}5<1[4:1],5,1<5[4:1],1,
{4}5>1[4:1],1w5[4:1],A1/E1/E2,A6/D6/D5/A4,
{16}6<1[16:3],5,6,5,{4}6,{8}4V28[4:1],4,8V24[4:1],8,
{4}4V68[4:1],8w4[4:1],A8f/E8f/E1f,E5f/D5f/A4f/D4f/E4f/A5f/A3f,
{32}1-5[8:1],2,3,4,5,6,7,8,{4}1b,{32}8-4[8:1],7,6,5,4,3,2,1,{4}8b,
{24}1,2,3,8,7,6,2,3,4,7,6,5,{32}1xw5[8:1],2x,3x,4x,5x,6x,7x,8x,{4}1bx,
{16}8,4,7,3,6,2,5,1,6,2,7,3,8,4,7/3,6/2,
5/1,8,7,6,5,4,3,2,{32}1w5[6:1],8,7,6,5,4,3,2,{4}1bx,
{16}3,4,2,5,1,6,8,7,{8}1,1,8,8,
{16}1,2,3,4,8/5,7,6,5,4/8,1,2,3,4/6,7,8,1,
2/3-8[8:1],,,4,{8}3,5,6-4[8:1],6,7>3[4:1],7,
{4}7,{16}7,6,5,4,{4}3/2,{16}1x/2x,1x/2x,1x/2x,1x/2x,
{32}8,7,{16}6,{8}3b,{32}7,6,{16}5,{8}2b,{32}8,7,{16}6,{8}3b,{32}7,6,{16}5,{8}2b,
{32}8bx,7bx,{16}6bx,{8}3b,{32}7bx,6bx,{16}5bx,{8}2b,{32}3,4,{16}5,2x/1x,1x/2x,{4}8bx/3bx,
{8}8/7,6/1,5/2,3/4,1/8,7/2,3/6,4/5,
{2}8>2v3<5[8:1],7pp4[8:1]/2qq4[8:1],
{8}7-4[8:1],1-4[8:1],,,5-8[8:1],3-8[8:1],,,{4}6<1[4:1],
1<5[4:1],{16}5,4,3,2,{4}1b,
{8}4b/3b,{16}2,1,{8}2-6[8:1],8-6[8:1],2-4[8:1],8b,{4}2b,
{8}5b/6b,{16}7,8,{8}7-3[8:1],1-3[8:1],7-5[8:1],1b,{4}7b,
{8}4-1[8:1],6-1[8:1],,,2-5[8:1],8-5[8:1],,,{4}3>8[4:1],
8>4[4:1],{16}4,5,6,7,{4}8b,
{8}5b/4b,{16}2,7,{8}1-3[8:1],8-4[8:1],1-5[8:1],8b,{4}1b,
{8}7/3,{16}4x/8x-4[8:1],7x/3x,{8}6x/2x-6[8:1],8<2[4:1],2b/A4f,8b/A6f,,,{1}D7/E7/C/E3/D3/D1/E1/E5/D5,
7/E8/B8/E2/B1/A8/B7/B6/E6/D6/B2/B3/E4/D4/A3,
{64}8b/1b,7b/2b,6b/3b,5b/4b,{4},,,{16},,,{1}D8/A8/D1/A1/E1/B1/C/B5/A5/7V15[4:1],
{64}7h/1h,2/6,3/5,4,{4},{16},,,{64}2/8,7h/3h,4h/6h,5h,{4},{16},,,{64}8bh,
7/1,6/2,5/3,{16}4,{64},,,,,,,,1bh,2h/8h,7/3,6/4,{16}5,{32},,,,3b,4b,5b,6b,7b,8b,1bh,2bh,3bh,4bh,5bh,6bh,{8}7bh,
{16}7,5,6,2,4,3,7,2,5,4,6,3,7,2,8,1,
{4}7b/2b,{64}1b,2,3,4,{16}5,{64},,,,,,,,1bw5[8:1],8,7,6,{16}5,,,{4}A1/E5/B4/D6/E6/B6/A4/E4/B3/D5/B2/A6/E7/B7/B8/E1/A5/B5/B1/E2/Ch[64:0],
{8}7/1-4[8:1],6-2[8:1],1,6,3,5/6,7-5[8:1],1,
7-3[8:1],{16}2-8[8:1],3,{8}7/4,2,{4}4-7[8:1]*-1[8:1],4,
{8}8/2,3,7/1-5[8:1],6,1/8-3[8:1],7,{4}8/6,
{32}4/8b,7,6,5,4,3,2,1,4b/8,5,6,7,8,1,2,3,4/8b,7,6,5,4,3,2,1,{4}8/Cf,
{8}6/8-4[8:1],7/3,8b/4b,2,1/3-7[8:1],2/6,3b/7b,5,
8/1-6[8:1],2/5,1b/3b,4,1/8-3[8:1],7/4,8b/6b,5,
{16}7b,5,6,2,4b,1,7,8,5b,3,4,1,8b,2,6,3,
{4}B1/B8/B7/Cf/B3/B5/B4/E2/E6,Cf/E6/B6/B7/B8/B1/B2/B3/E4,B1/B8/B7/Cf/B3/B5/B4/E2/E6,{32}8b/1b,2/7,3/6,4/5,
E
&lv_7=G
&des_7=SMS Fumen Team "GDTape"
&inote_7=
(200){4},,,,1/2,
3/4,5/6,8/7,
{8}1x/2x,1/2,3/8,4/7,{4}5-2[8:1]/6-1[8:1],D6f/A6/A5,
8/3,4/7,6/5,{8}8/7,8/1,
{4}1/2-5[8:1],6/2,{8}7/4,6,5/2,{16}3,4,
{4}3,2/5,{8}1/6,6/1,8/7,{16}1,8,
{4}1-5[8:1],{8}8,7<4[8:1],,3,{4}1b,
2/8,3/7,4/6,{8}5/3,{16}2,4,
{4}1-5[8:1],{8}5,6-1[8:1],,4,{4}2b,
{8}8/1,7,6/2,5,{12}2,2,4,8,8,6,
{4}1bs5[4:1],,,C,
{1}2b/1bqq5[4:5],
{2}2-4[8:1],4x>2[8:1],
{1}6/2bxqq5[4:3],
{2}8b-4[8:1],{16}1,,,1,,,{8}1,
6/2-5[8:1],2,8,8,7-4[8:1],7,1,1,
2-6[8:1],5,2-4[8:1],4-8[8:1],{4}2,{8}7,7,
{16}1,7,1,7,2,6,2,6,3,5,3,5,4x,4x,4x,4x,
{2}4xh[4:1],{4}Cf,6b/2b,
{8}1,8/7v4[8:1],6,1x,,2x-6[8:1]*-5[8:1],,2x,
,7,7,8,7p3[8:1],1,7,2,
2,1/2v5[8:1],3,8x,,7x<4[8:1],,7x,
{16}3,2,1,8,{8}3x/7h[8:1],{16}A4,A5,A6,A7,{8}A8,{4}Cf/B5/B4,
{8}8x,1/2v5[8:1],3,8x,,7x-3[8:1]*-4[8:1],,7x,
,2,2,1,2q6[8:1],8,2,7,
7-3[8:1],7,8-4[8:1],8,1-5[8:1],1,2-6[8:1],2,
{4}8h[4:1],{8}1,2/7,{16},,2b/7b,3b/6b,{4}4b/5b,
1/8,{16}2h[8:1]/4h[8:1],,,8h[8:1]/1h[8:1],,,{8}7/5,{4}8b/4b,
7/2,{16}7h[8:1]/5h[8:1],,,1h[8:1]/8h[8:1],,,{8}2/4,1,1,
{4}2/7,{16}4h[8:1]/2h[8:1],,,5h[8:1]/7h[8:1],,,{8}8/1,8/1,2,
3/4,2/5,6/1,8/7,{2}1bw5[8:1],
{4}3b/7b,{16}1h[8:1]/2h[8:1],,,3h[8:1]/4h[8:1],,,{8}6h[8:1]/7h[8:1],{16},8h[8:1]/1h[8:1],,,2h[8:1]/4h[8:1],
,,5h[8:1]/7h[8:1],,,{8}1h[8:1]/3h[8:1],{16},4h[8:1]/6h[8:1],,,{8}7,7,
3,3,5,5,{16}1,2,3,4,5,6,7,8,
{4}5V72b[4:1]/1V36[4:1],,,4b/8b,
2b/1b,{8}2-5[8:1],2,6-1[8:1],6,2,3,
7-4[8:1],4V61[4:1],7,1,,2,3,4,
{4}5/6,{8}7-4[8:1],7,3-8[8:1],3,7,6,
7/8x,1,7/8,6,{4}7-3[8:1]/8-4[8:1],8b/7b,
{8}2/5,1,8/7,{16}1<6[8:1],2,{8}3,1b-5[8:1],,1b,
{24},,,8,7,6,{4}5/4,{8}2/1,7b/3b,{24},,{6}8/7,
{4}6b/2b,{8}1,2,3/4,5,6/2-5[8:1],6/2,
,6,4,7,1-5[8:1],5,{4}1b,
7h[8:1]/8h[8:1],2h[8:1]/5h[8:1],2h[8:1]/1h[8:1],{8}3,3,
5-1[8:1],5,2,2,3,{24}8,7,6,{8}5,1,
1h[8:7],E3,E4,E5,E6,E7,E8,8xq4[8:1],
,3>1[8:1],,5,,7,{4}7,
2h[8:1]/1h[8:1],7h[8:1]/4h[8:1],7h[8:1]/8h[8:1],{8}6,6,
4-8[8:1],4,7,7,6,{24}1,2,3,{8}4,8,
8h[8:1],{24}6,5,4,{8}3,6,6h[8:1],{24}4,3,2,{8}1,5,
,4/3,,6/5,{16},,3,4,{4}3b,
{32}E6,E5,{16}E4,,,,,,,{8}A6,E7,E8,A8/A4,
,,{4}E4/E5,E7,E2/E1,
{8}A7/D7,{16},,,,B4,B3,{8}E3,E7,E2/B1,B5/E6,
,A2,A3,A4,A5/B5,A6,{4}A7,
1b-5[2:1],8,8,8,
8b-4[2:1],1,1,1,
{8}2/5,3,7/4,6,1/5,2,8/4,7,
{4}1-5[8:1]/5-1[8:1],5/1w5b[8:1],{64},B1,Cf,B6/B5/B4,{4},{16},,,{4}2b-5b[8:1]/6b-1b[8:1],
6b/2b,4b-1b[8:1]/8b-5b[8:1],4b/8b,
6b/2b,5b-1b[8:1]/7b-4b[8:1],7b/5b,{8}2b/4bx,2b/4bx,
{4}5b/1b<6b[8:1],1b/5b,5b/1b>4b[8:1],1b/5b,
{8}6b/5b,4b/2b,3b/7b,1b/5b,6b-3b[8:1]/2b-7b[8:1],4b/8b,{4}Cf,
1b/5b,{8}3b/7b,5b/7b,{4}4b-6b[8:1]/8b-2b[8:1],4b/8b-4b[8:1],
8b/3b-1b[8:1],3b/5bw1b[8:1],5b,{8}3b/7b,3b/5b,
{4}5b/1b,{16}1b<6b[8:1],2b,{8}3b,{4}1b,{16}2b,3b,4b,5b,
{2}6b/Ch[2:1],{4}1b-5[8:1],1b,
{8}6/5x,7,6/5,4,{4}8-4[8:1],{8}3,3,
{4}2-4[8:1],4v5[8:1],5-7[8:1],8,
{8}8/1,2,3/4,2,{4}1-5[8:1],{8}6,6,
{4}7-5[8:1],5v4[8:1],4-2[8:1],1,
{8}1-5[8:1],{16}7,6,{4}1,{8}8-4[8:1],{16}2,3,{4}8,
{8}2,{16}6,6,{8}3,{16}6,5,6,5,{8}7,8/4,3,
{16}2bx-5[16:1],,,8bx-3[16:1],,,{8}6bx-1[16:1],{16},4bx-7[16:1],,,{8}2,2,
{16}2,3,4,5,8,7,6,5,{32}1,2,3,4,5,6,7,8,{4}1b/Cf,
{16}2,4,3,5,{8}4-2[8:1],6,{4}4-7[8:1]*-6[8:1],4,
{16}1,2,3,4,5/1,6,7,8,5/1-5[8:1],6,7,8,{4}1/2,
{16}3/4,,,2,{8}5,1,7-3[8:1],8-4[8:1],7,8,
{4}5-1[8:1],5<8[8:1]*>2[8:1],5,{16}1bx,1bx,{8}1bx,
2bx-4[8:1],7,2bx-6[8:1],1,2bx-4[8:1],7,2bx-6[8:1],1,
2bx-4[8:1],7h[16:1],2bx,1h[16:1],8bx-4[8:1],7/5,{4}8bx,
{8}4x/3x,4x/5x,5x/6x,6x/7x,7x/8x,1x/8x,2x/1x,2x/3x,
{4}3x/4bx-1b[8:1],4x/7bxp4[4:1],{2}Cf,
{1}1pp6b[4:3],
{4}8,C/B2/B6,{32}A7f,B7f,Cf,B3f,{8}A3f,{4}8x/1x,
{8}2bx/7bx,{16}3,4,{8}3,5/6,{16}7,8,{8}6,1/5,{16}3,4,
{8}3,{16}6,5,{8}6,4,3/5,2/1,{4}7b/8b,
{1}8qq3b[4:3],
{4}1,C/B7/B3,{32}A2f,B2f,Cf,B6f,{8}A6f,{4}1x/8x,
{8}2bx/5bx,{16}3,4,{8}3,{16}6,5,7,5,{8}6,4b/8b,8/4,
1b/2b,{16}3,4,{8}2b,{16}7,8,6,1,{8}5,{4}Cf/B1/B5,
7b/3bx,2/1,4/3,1/2,
8b/1b,7/8,5/6,8x,
8b/4x,7/6,3/4,2/1,
7b/3x,{16}8,1,8,1,{4}8xh[8:1],1xh[8:1],
6b/2x,3/4,5b/1x,8/7,
{8}4b/8x,6,3b/7x,4,2b/6x,4,1b/5x,2,
{16}8,1,8,1,8,1,8,1,8,1,7,2,6,3,5,4,
{4}6-3[8:1],6b/2b-5[8:1],2b/6b,Cf/B7/B2,
8x/7x-3[8:1],{8}1/7,1,8/2>5[8:1],2/8,6,6,
8/7-5[8:1],{16}1b,2b,{8}3b/7-1[8:1],2bx,{4}7-4b[8:1]/4bx-8[8:1],7b/4b,
{16}1,5,1,5,2,6,2,6,3,7,3,7,4,8,4,8,
{4}4bV28[8:1]*-1[8:1],4b<7[8:1],8bxw4[8:1],8x,
{8}2x/6x,2x/6x,1,1,7x/3x,7x/3x,8,8,
2b/1b,3/8,7b/4b,5/6,7b/8b,6/1,2b/5b,4/3,
{16}2,5,3,4,8,7,8,7,5,6,4,7,2,1,2,1,
{32}3bx,4,5,6,7,8,1,2,3,4,5,6,7,8,1,2,3bx/8bx,7,6,5,4,3,2,1,8bx,7,6,5,4,3,2,1,
{1}Cf/B8/A8/B4/A4,
E
