&title=浸春芜
&artist=塞壬唱片-MSR; 宋柏; 十音; 解伟苓
&first=0
&des=kurene_saka Here a People Sows.
&lv_5=14
&inote_5=(65)
{1},
{16}2,4,3,5,4,6,6,8h[8:1],,5,1,1,4,4,5,5,
{16}7,5,6,4,5,3,3,1h[8:1],,4,8,8,5,5,4,4,
{16}2,4,3,5>2[8:1],4,6,6,5,,5,1,1,4,4,5,5,
{16}7,5,6,4<7[8:1],5,3,3,4,,4,8,8,5,5,4,4,
{16}2,4,3,{32}5qq2[4:1],5,{16}4,6,7,5/8h[16:1],,7,6,6,1,1,5,{32}3,3,
{16}7,5,6,{32}4pp7[4:1],4,{16}5,3,2,4/1h[16:1],,2,3,3,8,8,4,{32}6,6,
{16}2,4,3>8[8:1],{32}5pp8[4:1],5,{16}4,6,3,5,,2,3,3,7,4,5,{32}2,2,
{16}7,5,6<1[8:1],{32}4qq1[4:1],4,{16}5,3,6,4,,7,6,6,2,5,4,{32}7,7,
{16}4-8[8:1],,3,2,1,,2,3,4-8[8:1],5,6h[8:1],,,,6h[8:1],,
{16}4-8[8:1],,2h[8:1],,4,,2,3,4-8[8:1],5,6h[8:1],,,,5h[4:1],,
{16}6V82[4:1],,8V24[4:1],,2V46[4:1],,4V68[4:1]*v1[8:1],,,,,,,,4h[4:1],,
{16}3V17[4:1],,1V75[4:1],,7V53[4:1],,5V31[4:1]*v8[8:1],,,,,,,,7,6,
{16}5-1[8:1],,6,7,8,,7,6,5-1[8:1],4,3h[8:1],,,,3h[8:1],,
{16}5-1[8:1],,7h[8:1],,5,,7,6,5-1[8:1],4,3h[8:1],,,,4h[4:1],,
{16}3V17[4:1],,1V75[4:1],,7V53[4:1],,5V31[4:1]*v8[8:1],,,,,,,,5h[4:1],,
{16}6V82[4:1],,8V24[4:1],,2V46[4:1],,4V68[4:1]*v1[8:1],,,,,,,,{32}1,2,3,4,
{8}5/1-5[8:1],2/5>2[8:1],1/6h[8:1],,1-5[8:1],2/5>2[8:1],1/6h[8:1],,
{16}1-5[8:1],7,{8}2/5>7[4:1],{16}1/6h[8:1],,,7,,6,6,5,{32}85,1,2,3,14,8,7,6,
{8}5/8-4[8:1],7/4<7[8:1],8/3h[8:1],,8-4[8:1],7/4<7[8:1],8/3h[8:1],,
{16}8-4[8:1],2,{8}7/4<2[4:1],{16}8/3h[8:1],,,2,,3,3,4,{32}14,8,7,6,85,1,2,3,
{8}4/1-5[8:1],{16}2/5>2[8:1],6,{8}1/7h[8:1],,1-5[8:1],{16}2/5>2[8:1],6,{8}1/7h[8:1],,
{16}1-5[8:1],7,2/5>7[4:1],6,{16}1/7h[8:1],,,7,7,6,6,5,{32}85,16,27,38,1,2,3,4,
{8}1v3[8:1]/5v7[8:1],3>8[8:1]/7<4[8:1],15,,,5h[8:3]/1,2,3,
{32}4,6,4,6,4,6,4,6,3,5,3,5,3,5,3,5,2h[32:1],4h[32:1],2h[32:1],4h[32:1],2h[32:1],4h[32:1],2h[32:1],4h[32:1],1h[32:1],3h[32:1],1h[32:1],3h[32:1],1h[32:1],3h[32:1],1h[32:14],3h[32:9],
{8},,,8h[8:1],{96}7v6[16:1],6,5,4,3,2,1v2[16:1],8,7,6,5,4,{8}7h[8:1]/3h[8:1],,{16}5h[32:1],5h[32:1],
{32}1<3[8:1],5,1,6,1-5[16:1],7,1,8,{4},{16}2-4[16:1]/5h[32:1],7-5[16:1]/4h[32:1],1-5[16:1]/6h[32:1],8-4[16:1]/3h[32:1],{4},
{16}1h[16:3],,2,3,2h[16:3]/4h[32:1],5h[32:1],6h[32:1],7h[32:1],{32}8-4[4:1],8,2,2,4,4,6,6,,,1h[16:1],,,2h[16:1],,,
{16}3h[16:3],,,{32}8,4,{4}26,{32}3,4,2,1,4,5,1,8,5w1[16:1],6,8,7,4,6,2,8,
{16}5,,,{32}3,3,{8}2h[16:1]/6h[16:1],1h[16:1]/5h[16:1],8<5[16:1]/4>5[16:3],{32},,7,3,{4}48,
{32}8>6[8:1],4,8,3,8-4[16:1],2,8,1,{4},{16}7-5[16:1]/4h[32:1],2-4[16:1]/5h[32:1],8-4[16:1]/3h[32:1],1-5[16:1]/6h[32:1],{16},,8,1,
{16}8h[16:3],,,4,3/7h[16:3],,,3,{32}1-5[4:1],1,7,7,5,5,3,3,8,,8,7,,7,6h[4:1],,
{16},,,{32}1,5,{8}7h[16:1]/3h[16:1],8h[16:1]/4h[16:1],{32}15,4,3,2,18,7,6,5,48,1,2,3,45,6,7,8,
{32}1>4[16:1]/5<8[16:1],,,,,,2,6,{16}5w1[16:1]/1,,,46,
{16}5,,3,27,1/7h[16:3],,2,3,4-8[16:1],5/7h[16:3],6,,4,7,7/2h[16:1],7,
{16}7/4-8[16:1],7,7/6h[16:1],7h[16:1],4,,2,3,4-8[16:1],5/7h[16:3],6,,4,7,7/2V46[8:1],7,
{16}7h[8:1]/6<5[32:7],,2,7,8,,6,,{16},7h[16:3],6,,,7h[8:1],6V42[8:1],,
{16}7h[8:1]/2>1[32:7],,6,7,8,,8,,,7h[16:3],,{32}1,2,{24}3h[24:1],5h[24:1],1h[24:1],6h[24:1],4h[24:1],8h[24:1],
{16}2h[8:1],,6,7/2h[16:1],8,,7,6,5-1[16:1],4/2h[16:3],3,,5,2h[8:1],7h[16:1],,
{16}2/5-1[16:1],2,2/3h[16:1],2h[16:1],5,,7,6,5-1[16:1],4/2h[16:3],3,,5,2h[16:1],7V53[8:1],{32}2,2,
{16}2/3>4[32:7],2,27,2,1,,3,,{16},2h[16:3],3,,,2h[16:1],3V57[8:1],{32}2,2,
{16}2h[8:1]/7<8[32:7],,3,2,1,,1,4h[16:5],,,8h[16:2],,,,{32}8,7,6,5,
{8}4/8-4[8:1],7/4<7[8:1],8/3h[8:1],,8-4[8:1],7/4<7[8:1],8/3h[8:1],,
{16}8-4[8:1],2,{8}7/4<2[4:1],{16}8/3h[8:1],,,2,,3,3,4,{32}14,8,7,6,85,1,2,3,
{8}4/1-5[8:1],2/5>2[8:1],1/6h[8:1],,1-5[8:1],2/5>2[8:1],1/6h[8:1],,
{16}1-5[8:1],7,{8}2/5>7[4:1],{16}1/6h[8:1],,,7,,6,6,5,{32}85,1,2,3,14,8,7,6,
{8}5/8-4[8:1],{16}7/4<7[8:1],3,{8}8/2h[8:1],,{16}8-4[8:1],1,7/4<7[8:1],3,{8}8/2h[8:1],,
{16}8-4[8:1],2,7/4<2[4:1],3,{16}8/2h[8:1],,,2,2,3,3,4,{32}14,83,72,61,8,7,6,5,
{16}8v6[8:1]/4v2[8:1],37,6<1[8:1]/2>5[8:1],37,{8}84,,,{16}4h[8:3]/8,8,7,7,6,6,
{32}5,3,5,3,5,3,5,3,6h[32:1],4h[32:1],6h[32:1],4h[32:1],6h[32:1],4h[32:1],6h[32:1],4h[32:1],7h[64:1],5h[64:1],7h[64:1],5h[64:1],7h[64:1],5h[64:1],7h[64:1],5h[64:1],8h[64:1],6h[64:1],8h[64:1],6h[64:1],7h[64:1],4h[64:1],5h[64:1],2h[64:1],
{4}1b,{96}1,2,3,4,5,6,7,8,1,2,3,4,58,7,6,5,4,3,2,1,8,7,6,5,{32}4/8v7[16:1],1,2v3[16:1],3,4,5,6,7,{16},,5h[32:1],5h[32:1],
{64}1,2,3,4,7,6,5,4,{64}1h[128:1],1h[128:1],1h[128:1],1h[128:1],{16},
{16}2-6[16:1]/6h[32:1],1-5[16:1]/5h[32:1],8-4[16:1]/4h[32:1],7-3[16:1]/3h[32:1],{16}2,1,8,7,
{4}1>8[8:3],{16},6h[16:3],,,,2h[8:1],,,{32}4-2[16:1],1,4-7[16:1],8,4-1[16:1],7,4-8[16:1],6,
{4}4>5[8:3],{16},7h[16:3],,,,3h[8:1],,,{32}1,2,8,7,1,2,8,7,2,3,7-3[16:1],6,2,3,7,6,
{32}3,4,{16}5h[16:3]/7,,,2h[4:1],,6h[8:1],,,,{32}26,15,48,37,26,1,8,7,6/8h[32:1],5,4/8h[32:1],3,
{64}8,7,6,5,2,3,4,5,{64}8h[128:1],8h[128:1],8h[128:1],8h[128:1],{16},
{16}7-3[16:1]/3h[32:1],8-4[16:1]/4h[32:1],1-5[16:1]/5h[32:1],2-6[16:1]/6h[32:1],{16}7,8,1,2,
{4}8<1[8:3],{16},{96}1,2,3,{32}4h[32:5],{16},,,{96}8,7,6,{32}5h[32:3],{16},,{32}5-7[16:1],8,5-2[16:1],1,5-8[16:1],2,5-1[16:1],3,
{4}5<4[8:3],{16},2h[8:1],,,6h[16:1],,5h[16:1],,
{32}25,4,3,2,1,8,7,6,45,3,2,1,8,7,6,5,48,1,2,3,4,5,6,7,1-5[8:1]/8,2,3,4,5>3[4:1]*>2[8:3]*>1[2:1]*>8[8:5]*>7[4:3]*>6[8:7],6,7,8,
{1}1,
