&title=バビロニア
&artist=劇団レコード
&first=0
&des=悪魔ボール劇団
&lv_5=13
&inote_5=(164){4},,,
(164.001){4}2h[2:1],,4h[4:1],
(163.999){4}5p1[4:2],,,
(164.001){4}7h[2:1],,1h[4:1],
(163.999){4}3p5[4:2],,,
(164.001){4}2h[2:1],,4h[4:1],
(163.999){4}5p1[4:2],,,
(164.001){4}7h[2:1],,1h[4:1],(163.999){8}3>5[2:1],,,,,,
(164.001){4}4-1[8:1],3h[8:3],,(163.999){4}1,3h[8:1]/8,7/4h[8:1],
(164.001){4}5-8[8:1],6h[8:3],,(163.999){4}7h[8:1]/8,6h[8:1]/1,2/5h[8:1],
(164.001){4}4-1[8:1],4/3h[8:3],,(163.999){4}1,3h[8:1]/8h[8:1],7h[8:1]/4h[8:1],
(164.001){4}5-8[8:1],5/6h[8:3],,(163.999){4}7h[8:1]/8h[8:1],6h[8:1]/1h[8:1],2h[8:1]/5h[8:1],
(164.001){4}4bq6[4:4]/3bqq7[4:4],,,(163.999){8},,,,,,
(164.001){4}5h[4:3],1,1,(163.999){4}6h[4:2],8,8h,
(164.001){8}3,4,3,2,5,4,(163.999){8}3h[4:1],,7,4,5,6,
(164.001){8}4,3,2,1,8,7,(163.999){8}6,2,6,3,6,4,
(164.001){8}6,5,6,7,4,5,(163.999){8}6h[4:1],,3,5,4,3,
(164.001){4}5h[4:3],1,1,(163.999){4}6h[4:2],8,8h,
(164.001){8}3,4,3,2,5,4,(163.999){8}3h[4:1],,7,4,5,6,
(164.001){8}4,3,2,1,8,7,(163.999){8}6,2,6,3,6,4,
(164.001){4}5h[4:1]/6h[4:2],,,(163.999){4}3h[4:1]/4h[4:2],,,
(163.999){16}2,,3,,
4,,5,,
6-2[8:1],,7,,
(164.001){16}8z4[8:3],,,,
4b,,,,
,,,,
(164.001){4}3qq4[4:10],,,(163.999){4},,,
(164.001){4}3qq5[4:10],,,(163.999){4},,,
(164.001){4}3qq6[4:10],,,(163.999){4},,,
(164.001){4}3-7[4:4],,,(163.999){4},,,
(164.001){8}7,7,1,1h[4:1],3qq4[2:1],,(163.999){8}1-5[4:1],,,,,,
(164.001){8}7,7,1,1h[4:1],3qq5[2:1],,(163.999){8}1-6[4:1],,,,,,
(164.001){24}8,7,6,{8}5,1,1h[4:1],3qq6[2:1],,(163.999){8}1V35[4:1],,,,,,
(164.001){8}6h[4:1],,4,4h[4:1],{4}2qq6[4:3],(163.999){4}4qq5[2:1],,,
(164.001){8},,7b-2[8:1]/8b-5[8:1],,,,
(163.999){4}3/6h[8:3],{24}5,4,3,2h[8:3],,,{4}4pp4[4:1],
(164.001){8}4>6[8:3],,1,,2,,
(163.999){4}3h[8:3],{24}4,5,6,7h[8:3],,,{4}5qq5[4:1],
(164.001){8}5<3[8:3]*q1[4:1],,,,,,
(163.999){4}5h[8:3],{24}4,3,2,1h[8:3],,,{4}3pp3[4:1],
(164.001){8}3>5[8:3],,1,,3,,
(163.999){4}4-8[8:1],6h[4:1],1,
(164.001){16}2b/6b,,3b/7bp2[4:1],,
4b/8h[4:1],,,,
,,,,
(163.999){16}8b,7<1[16:7],6h[4:1],,
,,,,
8,,,,
(164.001){16}8b<2[16:7],7,6h[4:1],,
,,,,
8,,,,
(163.999){16}7p5[2:1],,,,
,,,,
2,,,,
(164.001){16}3p1[2:1],,,,
,,,,
8,,7>5[16:7],,
(163.999){16}6h[4:1],,,,
,,,,
6<4[16:7],7,8h[8:3],,
(164.001){16},,,,
,,,,
5-2[8:1],,6,,
(163.999){16}7-4[8:1],,,,
1-6[8:1],,,,
4-8[8:1],,,,
(164.001){16}4V61[16:5]*V27[16:5],,,,
,,,,
,,,,
(163.999){16}1bv4[16:4]/8b,2/7v4[16:3],6/3,,
,,,,
,,,,
(164.001){16}4bv1[4:1]/6bv1[4:1],3/7,2/8,,
,,,,
,,,,
(163.999){16}8/3q8[4:1],,,,
,,7,,
6,,5,,
(164.001){16}8>4[4:1]/4p7[4:1],,,,
,,,,
,,,,
(163.999){16}7h[4:1]/5,,,,
{24}4,3,2h[24:4],{16},,
1>6[16:5],,,,
(164.001){16}7h[4:1],,,,
,,,,
8<3[16:5],,,,
(163.999){16}5,4,3,2q5[16:9],
1qq6[2:1],,,,
,,,,
(164.001){16},,,,
,,,,
7,,8,,
(163.999){16}1h[8:1]/5h[8:1],,,,
{24}2/6,3/7,4/8,{16},,
4h[8:1]/8h[8:1],,,,
(164.001){16}7b/3b,,6b/2bq7[16:5]*q7[16:5],,
5b/1h[2:1],,,,
,,,,
,,,,
(163.999){16}2b/8b,3qq4[16:7]/7,6/4,,
,,,,
4<3[2:1],,,,
(164.001){16}6b,7,8h[4:1],,
,,,,
5-1[8:1],,,,
(163.999){16}5/6pp3[2:1],,,,
,,,,
3>5[16:7],,,,
(164.001){16}1b,,,,
,,,,
4-7[8:1],,3,,
(163.999){16}2pp8[2:1]/4,,,,
,,,,
8<1[16:7],7<1[16:6],6>1[16:5],,
(164.001){16}6b,,,,
,,,,
8-4[8:1],,7,,
(163.999){16}6-1[8:1]/8,,,,
2-6[8:1],,,,
8-3[8:1],,,,
(164.001){16}8b/5bV38[16:5]*V72[16:5],,,,
,,,,
,,,,
(163.999){16}1bp3[16:4]/8b,2/7q5[16:3],6/3,,
,,,,
,,,,
(164.001){16}4bq2[4:1]/6bp8[4:1],3/7,2/8,,
,,,,
,,,,
(163.999){16}8/2p8[16:5],,,,
,,7,,
6,,5,,
(164.001){16}7b>4[16:5]/4bpp5[16:5],,,,
,,,,
,,,,
(163.999){16}2h[4:1]/4b,,,,
{24}8<2[24:6],7<2[24:5],6h[24:4],{16},,
8,,,,
(164.001){16}7bpp3[8:3],,,,
,,,,
4h[4:1],,,,
(163.999){16}2<3[16:7],1<3[16:6],8<3[16:5],7<3[16:4],
6>3[16:3],,,,
1,,,,
(164.001){16}8b-4[8:1],,,,
,,,,
1-5[8:1],,5V38[4:1],,
(163.999){16}1,,,,
{24}7<1[24:6],6>1[24:5],5h[24:7],{16},,
7,,,,
(164.001){16}7b-3[8:1],,,,
5b-2[8:1]*-8[8:1],,,,
5bs1[4:5],,,,
(163.999){16},,,,
,,,,
,,,,
(164.001){16},,,,
,,,,
,,,,
(163.999){16}1/8h[16:5],,,,
1>8[16:7],2>8[16:6],3<8[16:5],4<8[16:4],
5<8[16:3],,,,
(164.001){16}1h,,,,
3h[4:1],,,,
2h[4:1],,,,
(163.999){16}1h[16:5],,,,
8<1[16:7],7<1[16:6],6>1[16:5],5>1[16:4],
4>1[16:3],,,,
(164.001){16}8h,,,,
6h[4:1],,,,
7h[4:1],,,,
(163.999){16}8h[16:5],,,,
1>8[16:7],2>8[16:6],3<8[16:5],4<8[16:4],
1/5<8[16:3],,,,
(164.001){16}1h,2,3,4,
5-1[8:1],,,,
8h[4:1],,,,
(163.999){16}2h[16:5],,,,
8<1[16:7],7<1[16:6],6>1[16:5],5>1[16:4],
8/4>1[16:3],,,,
(164.001){16}8h,7,6,5,
4-8[8:1],,,,
1,,,,
(163.999){16}1b/7b,2qq7[16:14]/6qq3[16:14],3/5,,
,,,,
,,,,
(164.001){16},,,,
,,,,
,,,,
(163.999){16}7,,6,,
5,,4,,
3-7[8:1],,2,,
(164.001){16}1s5[16:3],,,,
5bpp6[2:3]*qq4[2:3],,,,
,,,,
(164){4},,,,
