&title=星界ちゃんと可不ちゃんのおつかい海底谭
&artist=南ノ南
&first=0
&lv_5=13.4
&des_5=Jack2310 & はっぴー
&inote_5=
(220){4},,,,,,,,,,,,{2}5h[2:3],
{8}4,,,4,
,,{4}4,4,4/3,
6,5/6,3,3/4,
7,5/7,2/4,2/7,
3,3/4,6,5/6,
4,4/5,2/4h[4:1],5,
2/7,5/6,4/7,3/4,
2/5,1/8,4/5,2/7,
4/6,3,2/4,4/6,
{8}3,3,{4}2/4,{8}5,5,{4}4/6,
7,4/6,3/4h[4:1],5,
{8}6,6,{4}7/5,{8}3,3,{4}4/2,
8,1/7,2,1/3,
{8}8,8,{4}1/7,2/8h[4:1],7,
6,1/7,{8}6,6,{4}1/7,
{8}2,2,{4}1/3,8,2b/7b,
1>4[2:1],5,6,5,
1<6[2:1],5,4,5,
1>4[2:1],5,6,5,
1,5,3,1,
8<5[2:1],4,3,4,
8>3[2:1],4,5,4,
8<5[2:1],4,3,4,
{8}4,5,4,5,{4}2,4/5,
2<7[4:1],2,6q3[4:1],6,
1,8,7>2[4:1],7,
3p6[4:1],3,{8}4,4,5,5,
{4}3/6,3>6[8:3],4,5,
4,5,6>3[4:1],6,
2q7[4:1],2,8,1,
3<6[4:1],3,7p2[4:1],7,
{8}5,5,4,4,{4}3/6,2,
3,4,5,6z2[4:1],
{2}6,{4}2>5[4:1],2,
8<5[4:1],8,1-5[4:1],1,
8-4[8:1],8,{2}3b/5b,
{8}8,1,{4}8,7,6,
{8}3,4,2,5,{4}8h[4:1],7,
{8}7,8,6,1,{4}4h[4:1],3,
{8}8,8,{4}1/7,{8}2,5,3,4,
{4}3/5,5/6,2,{8}3,1,
3,8,4,7,{4}5,3,
4/5,5/7,4/5,3/4,
5/6,2/4,5/7,1/8,
2/8,1-5[4:1],1/7,8-4[4:1],
8/1,1-5[4:1],1/7,8-4[4:1],
8/2,1-5[4:1],1/7,8-4[4:1],
8/2,1-5[4:1],1/7,8,
8/2,1/7,8-4[4:1],8/3,
2-6[4:1],2/8,7,2/8,
1/2,4/7,7/8,2/5,
1/2,4/7,5,3,
7/1,8<5[4:1],8/2,1>4[4:1],
7/1,8<5[4:1],8/2,1>4[4:1],
7/1,8<5[4:1],8/2,1>4[4:1],
7/1,8<5[4:1],8/1,2,
8/1,8/2,1-5[4:1],1/6,
7-3[4:1],1/7,2,1/7,
5/6,3/8,3/4,1/6,
1/8,4/5,4/5,2b/7b,
{8},,,4,4h[8:5],,,5,
{4}5h[2:1],4,4h[4:3],5,
{8}5h[8:5],,,3,{4}3h[8:5],6,
6h[4:3],3,{2}3h[8:9],
{8}6,,,6,{4}6h[8:5],4,
4h[4:3],6,{8}6h[4:3],,,3,
3h[8:5],,,5,{4}5h[8:3],4,
4/5,4/5,{2}3/6,
{4}8,7,{2}8<5[2:1],
{4}3,2,3,3-8-2-5-7[1:1],
,,,,{1}D7f,
{4}1,2,{2}1>4[2:1],
{4}7,6,7,6pp5pp4pp3[2:3],
,,,,,,,,1,
2,1>4[2:1],7,
8,7<4[2:1],2,1,
{1}2h[2:3],
,6p8-3q7>2qq3b[2:3],
{4},,,,1h[4:1],
8,8-4[8:1],1-5[8:1],
,,4/5,5/3,
2/4,{8}3,3,{4}4,2,
{8}5/7,6,{4}6,5,{8}2/4,3,
{4}3,4,{8}5/7,6,{4}6,
{8}1/3,2,{4}2,3,1,
6/8,{8}7,7,{4}6,8,
{8}2,2,{4}1/3,2,3,
1,4/5,4/5,2/7,
6-2[4:1],6,3-8[4:1],3,
5-1[4:1],5,4>5[8:3],4,
,1/8,{2}2b/7b,
{4}6/8,7<4[4:1],7/1,8>3[4:1],
8/6,7<4[4:1],7/1,8>3[4:1],
8/6,7<4[4:1],7/1,8>3[4:1],
8/6,7<4[4:1],7/1,2,
2/7,8-4[4:1],8/1,2-6[4:1],
2/8,7,8/2,1/2,
{2}4/7,7/8,
{4}2/5,1/2,4/7,5,
1/3,2>5[4:1],2/8,1<6[4:1],
1/3,2>5[4:1],2/8,1<6[4:1],
1/3,2>5[4:1],2/8,1<6[4:1],
1/2,3,1/2,5b/2b,
1-5[4:1],1/7-3[4:1],7,1,
{16}5/1,,,1/6,,,{8}1/8,{16}4/5,,,4/5,,,{8}7/2,
,,{4}4>5[8:3],{2}4,
{4}1/7,8<5[4:1],8/2,1>4[4:1],
1/7,8<5[4:1],8/2,1>4[4:1],
1/7,8<5[4:1],8/2,1>4[4:1],
1/5,5<8[4:1],4/5,3,
2/6,7<4[4:1],7/2,1-5[4:1],
1/7,8-4[4:1],1/8,2>5[4:1],
2/7,8-4[4:1],8/2,1-5[4:1],
1/6,7<4[4:1],7/2,1-5[4:1],
1/7,8-4[4:1],1/8,2>5[4:1],
2/7,8-4[4:1],8/2,1-5[4:1],
1/6,7<4[4:1],7/2,3,
6,4/5,2/7,3b/6b,
7/3,2>5[4:1],2/7,8-4[4:1],
8/2,1-5[4:1],8/1,7<4[4:1],
7/2,1-5[4:1],1/7,8-4[4:1],
8/3,2>5[4:1],2/7,8-4[4:1],
8/2,1-5[4:1],8/1,7<4[4:1],
7/2,1-5[4:1],1/7,8-4[4:1],
8/3,2>5[4:1],2/7,6,
3,5/4,7/2,6b/3b,
6,5,3,4,
{8}5,3,6,4,5,3,6,4,
{4}3,4,6,5,
3,4/5,4/5,2b/7b,
7,6,4,3,
7,5,2,4,
6,5,3,4,
6,5,4/5,4/5,
E
&lv_6=14.6
&des_6=
&inote_6=
(220){4},,,,,,,,,,,,{2}5h[2:3],
{4}4,{8}4,4,
,4,{4}4,4,4/3,
6,5/6,3,3/4,
7,5/7,2/4,2/7,
3,3/4,6,5/6,
4,4/5,2/4h[4:1],5,
2/7,5/6,4/7,3/4,
2/5,1/8,4/5,2/7,
4/6,3,2/4,4/6,
{8}3,3,{4}2/4,{8}5,5,{4}4/6,
7,4/6,3/4h[4:1],5,
{8}6,6,{4}7/5,{8}3,3,{4}4/2,
8,1/7,2,1/3,
{8}8,8,{4}1/7,2/8h[4:1],7,
6,1/7,{8}6,6,{4}1/7,
{8}2,2,{4}1/3,8,2b/7b,
1>4[2:1],5,6,5,
1<6[2:1],5,4,5,
1>4[2:1],5,6,5,
1,5,3,1,
8<5[2:1],4,3,4,
8>3[2:1],4,5,4,
8<5[2:1],4,3,4,
{8}4,5,4,5,{4}2,4/5,
2<7[4:1],2,6q3[4:1],6,
1,8,7>2[4:1],7,
3p6[4:1],3,{8}4,4,5,5,
{4}3/6,3>6[8:3],4,5,
4,5,6>3[4:1],6,
2q7[4:1],2,8,1,
3<6[4:1],3,7p2[4:1],7,
{8}5,5,4,4,{4}3/6,2,
3,4,5,6z2[4:1],
{2}6,{4}2>5[4:1],2,
8<5[4:1],8,1-5[4:1],1,
8-4[8:1],8,{2}3b/5b,
{8}8,1,{4}8,7,6,
{8}3,4,2,5,{4}8h[4:1],7,
{8}7,8,6,1,{4}4h[4:1],3,
{8}8,8,{4}1/7,{8}2,5,3,4,
{4}3/5,5/6,2,{8}3,1,
3,8,4,7,{4}5,3,
4/5,5/7,4/5,3/4,
5/6,2/4,5/7,1/8,
{8}8/1-5[8:1],2,1/8-4[8:1],7,8/1-5[8:1],2,1/8-4[8:1],7,
8/1-5[8:1],2,1/8-4[8:1],7,8/1-5[8:1],2,{4}1/8,
{8}1/8-4[8:1],7,8/1-5[8:1],2,1/8-4[8:1],7,8/1-5[8:1],2,
1/8-4[8:1],7,8/1-5[8:1],2,{4}1/8,{8}1/8,2,
,7,1/8-4[8:1],7,8/2-6[8:1],3,2/8-4[8:1],7,
8/2-6[8:1],3,2/8-4[8:1],7,8/2-6[8:1],3,{4}2,
1/2,4/7,7/8,2/5,
1/2,4/7,5,3,
{8}2/8<5[8:1],7,8/1>4[8:1],2,1/8<5[8:1],7,8/1>4[8:1],2,
1/8<5[8:1],7,8/1>4[8:1],2,1/8<5[8:1],7,{4}1/8,
{8}8/1>4[8:1],2,1/8<5[8:1],7,8/1>4[8:1],2,1/8<5[8:1],7,
8/1>4[8:1],2,1/8<5[8:1],7,8/1>4[8:1],2,8/1,7,
{4}1/8,{8}8/1-5[8:1],2,1/7-3[8:1],6,7/1-5[8:1],2,
{4}1/7-3[8:1],7/1-5[8:1],1/7-3[8:1],7/1,
6/5,3/8,3/4,1/6,
1/8,4/5,4/5,2b/7b,
{8},,,4,4h[8:5],,,5,
{4}5h[2:1],4,4h[4:3],5,
{8}5h[8:5],,,3,{4}3h[8:5],6,
6h[4:3],3,{2}3h[8:9],
{8}6,,,6,{4}6h[8:5],4,
4h[4:3],6,{8}6h[4:3],,,3,
3h[8:5],,,5,{4}5h[8:3],{8}4,4,
{4}4/5,4/5,{2}3/6,
{4}8,7,{2}8<5[2:1],
{4}3,2,3,3-8-2-5-7[1:1],
,,,,{1}D7f,
{4}1,2,{2}1>4[2:1],
{4}7,6,7,6pp5pp4pp3[2:3],
,,,,,,,,1,
2,1>4[2:1],7,
8,7<4[2:1],2,1,
{1}2h[2:3],
,6p8-3q7>2qq3b[2:3],
{4},,,,1h[4:1],
8,8-4[8:1],1-5[8:1],
,,4/5,5/3,
2/4,{8}3,3,{4}4,2,
{8}5/7,6,{4}6,5,{8}2/4,3,
{4}3,4,{8}5/7,6,{4}6,
{8}1/3,2,{4}2,3,1,
6/8,{8}7,7,{4}6,8,
{8}2,2,{4}1/3,2,3,
1,4/5,4/5,2/7,
6-2[4:1],6,3-8[4:1],3,
5-1[4:1],5,4>5[8:3],4,
,1/8,{2}2b/7b,
{8}8/7<4[8:1],6,7/8>3[8:1],1,8/7<4[8:1],6,7/8>3[8:1],1,
8/7<4[8:1],6,7/8>3[8:1],1,8/7<4[8:1],6,{4}7/8,
{8}7/8>3[8:1],1,8/7<4[8:1],6,7/8>3[8:1],1,8/7<4[8:1],6,
7/8>3[8:1],1,8/7<4[8:1],6,7/8>3[8:1],1,{4}8/7,
{8},2,1/8-4[8:1],7,8/2-6[8:1],3,2/8-4[8:1],7,
8/2-6[8:1],3,2/8-4[8:1],7,{4}8/2,1/2,
{2}4/7,7/8,
{4}2/5,1/2,4/7,5,
{8}1/2>5[8:1],3,2/1<6[8:1],8,1/2>5[8:1],3,2/1<6[8:1],8,
1/2>5[8:1],3,2/1<6[8:1],8,1/2>5[8:1],3,{4}2/1,
{8}2/1<6[8:1],8,1/2>5[8:1],3,2/1<6[8:1],8,1/2>5[8:1],3,
2/1<6[8:1],8,1/2,3,{4}1/2,{8}5b/2b,1,
,7,8/1-5[8:1],2,1/7-3[8:1],6,7/1,2,
{16}5/1,,,1/6,,,{8}1/8,{16}4/5,,,4/5,,,{8}7/2,
,,{4}4>5[8:3],{2}4,
{8}1/8<5[8:1],7,8/1>4[8:1],2,1/8<5[8:1],7,8/1>4[8:1],2,
1/8<5[8:1],7,8/1>4[8:1],2,1/8<5[8:1],7,8/1>4[8:1],2,
1/8<5[8:1],7,8/1>4[8:1],2,1/8<5[8:1],7,8/1,2,
8/4>1[8:1],3,4/8<5[8:1],7,{4}8/4>1[8:1],4/8,
7<4[8:1],7/1-5[8:1],1/8-4[8:1],8/2>5[8:1],
{8}2/8-4[8:1],7,8/1-5[8:1],2,1/7<4[8:1],6,7/1-5[8:1],2,
{4}1/8-4[8:1],8/2>5[8:1],2/8-4[8:1],8/1-5[8:1],
{8}1/7<4[8:1],6,7/1-5[8:1],2,1/8-4[8:1],7,8/2>5[8:1],3,
{4}2/8-4[8:1],8/1-5[8:1],1/7<4[8:1],7/1-5[8:1],
{8}1/8-4[8:1],7,8/2>5[8:1],3,2/8-4[8:1],7,8/1-5[8:1],2,
{4}1/7<4[8:1],7/1-5[8:1],1/8-4[8:1],8/2,
{8}2/8,3,6,4/5,1/8,2/7,{4}3b/6b,
7/2>5[8:1],2/8-4[8:1],8/1-5[8:1],1/7<4[8:1],
{8}7/1-5[8:1],2,1/8-4[8:1],7,8/2>5[8:1],3,2/8-4[8:1],7,
{4}8/1-5[8:1],1/7<4[8:1],7/1-5[8:1],1/8-4[8:1],
{8}8/2>5[8:1],3,2/8-4[8:1],7,8/1-5[8:1],2,1/7<4[8:1],6,
{4}7/1-5[8:1],1/8-4[8:1],8/2>5[8:1],2/8-4[8:1],
{8}8/1-5[8:1],2,1/7<4[8:1],6,7/1-5[8:1],2,1/8-4[8:1],7,
{4}8/2>5[8:1],2/8-4[8:1],8/1-5[8:1],1/7,
{8}7/1,6,3,5/4,8/1,7/2,{4}6b/3b,
6,5,3,4,
{8}5,3,6,4,5,3,6,4,
{4}3,4,6,5,
3,4/5,4/5,2b/7b,
7,6,4,3,
7,5,2,4,
6,5,3,4,
6,5,4/5,4/5,
E
