&title=有頂天ドリーマーズ feat.lily-an
&artist=森羅万象 × Liz Triangle
&first=0
&des=Holinality
&clock_count=4
&lv_5=13
&inote_5=(188)
{1}
,
{64}
,
{4}
,,,
{16}
,,4x,5x,
{8}
3hx[8:3],,,E7/E8/A7,,,E1/E2/A1,,
5,6h[8:3]/4,,,1,,3/5,,
6h[8:3]/4,,,E3/E2/A2,,,E1/E8/A8,,
4,3h[8:3]/5,,,8,,6/4,,
4h[8:3],,,6,,,35,,
{16}
,,3,6,4,,5h[8:3],,
1,,,,3,,,,
{16}
45,,,,5,4,5,4,
5,4,5,,36,,,,
{16}
,,6,5,7,,4,,
8-4[8:1],,,,8/2,,,,
{16}
2bx-4[8:1],,7,,2,,6,,
5-1[8:1],,7,,5,,,,
8,,2,,8h[8:2],,,,
3h[8:2],,,,5,,,,
7-5[8:1],,2,,7,,3,,
4-8[8:1],,2,,4,,,,
1,,7,,1h[8:2],,,,
6h[8:2],,,,4,,,,
2>4[8:1],,7,,2,,6,,
5-1[8:1],,7,,5,,,,
8,,2,,8h[8:2],,,,
3h[8:2],,,,5,,,,
64,,7,,35,,2>5[8:1],,
,,2/6pp1[8:4],,,,6,,
,,4,,3,,2,,
,,8,,2,,7,,
{16}
3-8[8:1],,,,3/5,,6,,
7-4[8:1],,,,7/1,,2,,
3<6[8:1],,,,3/7,,8-4[8:1],,
,,8/2-6[8:1],,,,2,,
,,7,,7pp4[8:6],,,,
3,,,,3,,,,
3,,,,3,,,,
5,,3,,6,,4,,
7<4[8:1],,,,7/2,,1,,
8>3[8:1],,,,8/5,,6,,
7-4[8:1],,,,7/3,,2v5[8:1],,
,,2/1<6[8:1],,,,1,,
,,3,,6,,4x,5x,
4x,,5x,,45,,,,
1b/7b,,8bqq5[2:1]/2b,,,,8b,,
,,4,,3,,2,,
{16}
1-5[8:1],,,,1,,6,,
7<3[8:1],,,,7,,1,,
1<5[4:1],,,,1/5>1[4:1],,5x,,
,,7,,,,6,,
5-3-1[4:1],,,,5/1-7-5[4:1],,1x,,
,,4xw8[2:1],,4x,,4x,,
,,,,,,,,
,,,,2pp5[2:1],,,,
2,,,6,,,7,,
,,8-4[8:1],,,,8,,
,,1-3[8:1],,,,1,,
6,,6h[8:1],,4,,4h[4:1],,
,,6,,35,,,,
74,,6,,25,,3h[4:1],,
,,,,7,4,6,3,
5,,3bx/6bx,,,,,,
{16}
4h[1:1],,,,6,,,,
E8,,,,E7,,,,
E6,,,,,,,,
2,,2,,8,,8,,
2h[1:1],,,,7,,,,
E5,,,,E6,,,,
E7,,,,,,,,
,,,,7<4[4:1],,7x,,
4>1[4:1],,,,1<6[4:1],,,,
6>3[4:1],,,,3>8[4:1],,,,
8<5[4:1],,,,,,,,
4,,,,3,,,,
2/8h[2:1],,,,,,,,
,,,,1/7,,,,
2-5[8:1],,,,2/8-4[8:1],,,,
8/3<6[8:1],,,,3/7,,7pp5[2:1],,
,,,,,,,,
,,,,3,,,,
7<4[8:1],,,,7/2q6[8:1],,,,
2/8-4[8:1],,,,8,,1-5[8:1],,
,,1,,7,,,,
64,,2,,35,,7,,
,,1,,28,,7,4,
6,,3,,5,,3h[4:1],,
,,7,,4,,6,,
2,5,3,6,4,,7x-3[8:1],,
,,1w5[8:1]/7,,,,1b,,
,,,,7xv4[8:1],,,,
{16}
2b-6[8:1]/7b,,,,2/8<4[8:1],,,,
8,,,,3,,2,,
1-5[8:1],,,,1/7,,,,
7xv4[8:1],,3-1[8:1],,7<3[8:2],,3,,
7,,,,1>6[8:2],,,,
1,,,,8,,,,
17,,,26,,,35,,
3b/6b,,,,,,5/3,,
,,3,4,2,,6,5,
7,,4-8[8:1]/6,,,,4/7-5[8:1],,
,,7/1-3<4[8:1],,,,1-7<6[8:1],,
,,1,,4,,3,,
2/8,,3b/7b,,,,1/7,,
2b/6b,,,,8/2,,7bqq4b[8:4]/3b,,
,,7b/3b,,,,3,,
2,,1,,1-5[8:1],,,,
1b/7p3[8:1],,,,7/2>5[8:1],,,,
2,,,,6,,7,,
8-4[8:1],,,,8/2,,,,
1x-5[8:1],,7v4[8:1],,1>6b[8:2],,7,,
1b,,,,8<3b[8:2],,,,
8b,,,,1,,,,
8b/2b,,,7b/3b,,,6b/4b,,
6b/4b-7[8:1],,,,2/4,,3h[8:2],,
,,6,,1,,7,,
2,,8-6[8:1]*-5[8:1],,,,8b-2[8:1]*-3[8:1],,
,,8bw4[8:1],,,,8b,,
,,,,26,,,,
7<4[8:1],,8,,1,,2<7[8:1],,
3,,4,,5,,,,
6,,7h[4:1],,,,2,,
1h[4:1],,,,7,,,,
1>4[8:1],,8,,7,,6<1[8:1],,
5,,4,,3,,,,
2pp1[8:3],,,,,,6h[8:3],,
,,,,,,,,
2-5[8:1],,1,,2,,7v4[8:1],,
8,,7,,1h[4:1],,,,
5<8[8:1],,,,1/5,,2,,
3<6[8:1],,,,3,,,,
8-6[8:1],,2,,8,,3h[8:1],,
5,,,,4,,36,,
,,3,4,2,,6,5,
7,,4,5,4,5,4,5,
4h[8:3],,5x,,6x,,7x,,
8b-4[8:1],,,,8/3,,2-6[8:1],,
,,2,,8,,8,,
8bx/1bx,,,,1hbx[8:1],,,,
{16}
7bx-5[8:1],,2,,7,,3,,
4-8[8:1],,2,,4,,,,
1,,7,,1h[8:2],,,,
6h[8:2],,,,4,,,,
2-4[8:1],,7,,2,,6,,
5-1[8:1],,7,,5,,,,
8,,2,,8h[8:2],,,,
3h[8:2],,,,5,,,,
7<5[8:1],,2,,7,,3,,
4-8[8:1],,2,,4,,,,
1,,7,,1h[8:2],,,,
6h[8:2],,,,4,,,,
2>4[8:1],,7,,2,,6,,
5-1[8:1],,7,,5,,,,
8,,2,,7,,1,,
82,,73,,64,,,,
{16}
5-7[8:1],,3,,5,,4-2[8:1],,
8,,4,,7<5[8:1],,1,,
7,,3>1[8:1],,4,,3,,
8-6[8:1]*-5[8:1],,,,8,,,,
1x-3[8:1],,7x,,1,,8-6[8:1],,
4,,8,,3>1[8:1],,5,,
3,,7<5[8:1],,8,,7,,
4-2[8:1]*-1[8:1],,,,,,,,
5x-7[8:1],,3x,,5,,4-2[8:1],,
8,,4,,7<5[8:1],,1,,
7,,3>1[8:1],,4,,3,,
5-2[8:1]*-8[8:1],,,,5,,,,
{16}
1,,28,,37,,46,,
,,,,8,,17,,
26,,3/5,,,,,,
(181)
2/6,,,,
(165)
7xqq8b[8:44]/1xpp8b[8:44],,,,
7bx/1bx,,,,,,,,
,,,,,,,,
,,,,,,,,
,,,,,,,,
,,,,,,,,
,,,,,,,,
,,,,,,,,
,,,,,,,,
,,,,,,,,
,,,,,,,,
,,,,,,,,
,,,,,,,,
,,,,,,,,
,,,,,,,,
,,,,,,,,
E
