&title=D/N/A
&artist=Azari/25時、ナイトコードで。× 鏡音リン
&first=0.973
&des=Kurage
&lv_5=13+
&inote_5=(150)
{4}D5,E5,{16}5h[8:3],,4,4h[16:3],,,,,
{8}4q1[8:3],,6,6,6x,,E7,,5p8[8:3],,3,3,3x,,E3,,
{8}4q1[8:3],,6,6,6x,,C,,1p4[8:3]/8q5[8:3],,,,,,Cf/E3/E7,,
{8}1xh[8:1]/8x,8,1xh[8:1]/7,7,{16}1x/5h[8:1],,,1x/3h[8:1],,,1x/2,,
{8}1xh[8:1]/8,8,1xh[8:1]/7,7,{16}6h[8:1]/5xh[8:1],,,3xh[8:1]/2h[8:1],,,8/7x,,
{8}8xh[8:1]/1,1,8xh[8:1]/2,2,{16}8x/4h[8:1],,,8x/6h[8:1],,,8x/7,,
{4}8>4[48:7]/1,8/1<5[48:7],8/1,Cf/E1/B8/B4/E5,
{16}2x-7[8:5],,,C,,,E5,,{4},,
{16}6-3[8:5],,,C,,,E1,,{4},B8/B1,
{16}2-7[8:5],,,C,,,E5,,{4},,
{4}6-3[8:1],2-7[8:1],C,81,
{8}2-5[8:1],2-4[8:1],{4}2qq2[8:3],,,
{8}7-4[8:1],7-5[8:1],{4}7pp7[8:3],,B5/B4,
{4}3q8[4:1],8qq7[4:1],6>3[16:3],,
{4}B1/B8,C,B5/B4,3xb/6xb,
{8}3V58[4:1]/4,2,1,2,{16}3h[8:1],,1,2h[8:1],,,23,,
{8}3/4>1[8:1],5,6-4[8:1],7,3xh[4:1],,4,5,
{8}6V41[4:1]/5,7,8,7,{16}6h[8:1],,8,7h[8:1],,,76,,
{4}6-1[8:1]/5-2[8:1],65,{8}4b/8b,7,56,34,
{8}2-5[8:1],5>2[8:1],2<8[8:1],7,1xp5[48:7]*q5[48:7],,,,
{8}6-1[8:1],1<6[8:1],6>4[8:1],3,5xp1[48:7]*q1[48:7],,,,
{4}3/7p2[4:1],2V85[4:1],5qq3[4:1],3,
{4}1<6[8:1],1/4w8[8:1],4,2b/6b,
{1}8p5[4:3],
{4}4q1[16:5],5p8[16:5],,,
{1}7pp8[4:2]/2qq1[4:2],
{8}6-4[8:1]/4,6,6,6,6/2-6[8:1],2,2,2,
{16}8bh[4:3]/2,,,4,,,6,,,,,,{48}E1,C,E5,,,,{8},
{16}
4x,5,5,5,4x,5,5,5,4x,4,4,5x,5,5,4x,4,
3x,4,4,5,3x,4,4,5,4x,4,4,5x,4,,6x/3x,,
5x,4,4,4,5x,4,4,4,5x,5,5,4x,4,4,5x,5,
6x,5,5,4,6x,5,5,4,5-1[8:1],,,,{48}E5,B4,Cf,B8,E1,,{8},
{8}1xq6b[32:5]/2xp5b[32:5],,1b/2bV48[4:1],,{16}5V38[4:1],,,6,,,2,,
{16}1q6[16:3],,,6q3[32:7]*<3[32:7],1,,8,,{4},{8}4-8[8:1]/5-7[8:1],36,
{8}4-2[8:1]/5-1[8:1],,4b/5b,,{16}7/8p3[16:3],,,3,8,,1,,
{8}2-6[16:1],6,8-4[16:1],4,1w5b[8:1],,1b`Cf,,
{4}3x-7[8:1]/7x-4[8:1],3x/7x,{16}1h[8:1]/2,,3,2,,2,4,,
{16}1h[8:1]/5,,6,8,,8,7,,{4}8xw4b[8:1]/1x,8,
{4}6-2[8:1]/2-5[8:1],6x/2x,{16}8h[8:1]/7,,6,7,,7,5,,
{16}8h[8:1]/4,,3,1,,1,2,,{8}1x-4[8:1]/8x-5[8:1],2x/7x,E1/A8/A1/B8/B1,,
{16}
3<6[8:1]/6h[16:3],,,1,3x,,2,,3q7[8:1]/7h[16:3],,,1,3x,,2,,
3qq8[8:3]/8,,4,,6x-4b[8:1],,7,,,,,,B1/E2/B2/C,,,,
3h[16:3]/5-3[32:3],,,7,5x,,6,,2h[16:3]/5-2[8:1],,,7,5x,,6,,
1/5pp1[8:3],,4,,2x-4b[8:1],,3,,,,,,E7/B7/B6/Ch[4:1],,,,
{4}8q4q8[4:3],,,,{4}2q6q2[4:3],,,4x-8b[8:1],
{8},,21,21,{16}1,2,1,3,1,4,1,5<5[16:9],{8}1xbh[4:2],,,,,,{48}B1,Cf,B5,,,,{8},
{48}46,5x,,,,,,,,,,,46,5x,,,,,,,,,,,46,5x,,,,,,,,68,7x,,,,,,,,24,3x,,,,,
{48}2/4,3xh[48:11],,,,,,,,,,,{16}7x,5x,5x,5x,E1/A8/A1/B8/B1,,,A3/B3/B4/E4/A4,,,B6/B5/E6/A6/A5,,
{48}24,3x,,,,,,,,,,,24,3x,,,,,,,,,,,64,5x,,,,,,,,82,1x,,,,,,,,{32}3,4,3,,
{8}5x,{32}3,4,3,,{8}6x,{32}3,4,3,,{16}7x,5x,5x,5x,{4}3xb>8[8:1]/7xb<4[8:1],
{8}3xq8b[32:5]/7xq4b[32:5],,3b/7bV51[4:1],,{16}4V61[4:1],,,3,,,7,,
{16}8p3[16:3],,,3p6[32:7]*>6[32:7],8,,1,,{4},{8}5p1[8:1]/4>2[8:1],63,
{8}5<7[8:1]/4q8[8:1],,5b/4b,,{16}2/1pp1[32:9],,,6,1,,8,,
{8}7-3[16:1],3,1-5[16:1],5,8w4b[8:1],,8b`Cf,,
{8}6xp1b[48:7]/2x>5[48:7],,6x/2x,,7<5[32:3]/8,{16}8,7,1<7[32:3],,2,,
{16}3>1[32:3],,4,3,5>3[32:3],,7,,1xw5b[8:1],,,,1,,,,
{8}3q8b[48:7]/7<4[48:7],,3x/7x,,2>4[32:3]/1,{16}1,2,8>2[32:3],,7,,
{16}6<8[32:3],,5,6,4-2b[32:3],,4-6[32:3],,4x-1b[8:1],,4x-7[8:1],,4xb-8b[8:1],,4xb,,
{8}
C,,6,7h[4:1],5h[4:1],,4,3xh[4:1],
4xh[4:1],,5,6xh[4:1],5xh[4:1],,4,2h[4:1],
4h[4:1],,5,8h[4:1],6h[4:1],,5,1xh[4:1],
3xh[4:1],,4,7xh[4:1],5xh[4:1],,4,36,
1h[4:1]/8,,3,2h[4:1],4h[4:1],,5,6xh[4:1],
5xh[4:1],,4,3xh[4:1],4xh[4:1],,5,7h[4:1],
5h[4:1],,4,1h[4:1],3h[4:1],,4,8,
75,4,43,5,56,{16}3,24,,,5/7-5[32:3],,
{8}
4-7[64:7],2,1,3-5[32:3],6-3[64:7],7,1,8x-6b[32:3],
5x-8[64:7],4,3,2x-4b[32:3],5x-2[64:7],6,8,6-3b[64:7],
4-6b[32:3],3,1,2-7b[64:7],8-2b[32:3],7,6,5xp8[64:7],
1xp4b[64:7],2,2,3xqq1[32:5],3x<6b[8:1],,,2-4[32:3],
5-2[64:7],7,8,6-4[32:3],3-6[64:7],2,8,1x-3b[32:3],
4x-1[64:7],5,6,7x-5b[32:3],4x-7[64:7],3,1,3-6b[64:7],
5-3b[32:3],6,8,7-2b[64:7],1-7b[32:3],2,3,4,
57,45,24,18,6/7p2[64:7],2/3p6b[64:7],{32}D7,D6,D5,D4,D3,D2/E2,D1,D8/E8,
{4},,
