&title=Stranger
&artist=James Landino
&first=-0.1
&des=❌️该用户不存在!
&des_5=
&lv_5=14
&inote_5=(171){4},,,,,,{2}6h[2:1]/1-4V25[4:5],
,6h[2:1],
,7h[2:1]/5-2V41b[4:5],
,7h[2:1],
,2h[2:1]/8-6-1-5[4:5],
,3h[2:1],
{4},,4h[8:1]/2h[8:1],{8}3/5,{16}6,4,
6,5,{8}7,{16}3,5,3,4,{8}2,{16}6,4,7,5,{8}8,
{16}3,5,2,4,{8}1h[8:1],8,7h/2h,2h/7h,{4}7h/2-5[8:1],
{8}5,7,1,3<6[8:1],,3/7,,8-4[8:1],
,1,{4}1,6h/3-8[8:1],{8}7,5<1[16:3],
,2,{4}4h[4:1],{16}E3,E4,E5,E6,E7,E8,2,3,
4,5,6,7,8,1,2,3,{4}4/6,8/7-4[8:1],
{8}4,2,8,6>3[8:1],,3/6,,1-5[8:1],
,8/1,{4}8,3h/6-1[8:1],{8}2,4>8[16:3],
,7,{4}5h[4:1],{16}E7,E6,E5,E4,E3,E2,7,6,
5,4,3,2,1,8,7,6,{8}5/2h,2h,{4}4h/2-5[8:1],
{8}5,7,1,3<6[8:1],,3/6,,8qq1[4:1],
,1,{4}3,4-1[8:1],{8}7,5<1[16:3],
,2,{4}4h[4:1],{16}E3,E4,E5,E6,E7,E8,2,3,
4,5,6,7,8,1,2,3,{4}4/6,8/7<4[8:1],
{8}4,2,8,6>3[8:1],,6/3,,1pp8[4:1],
,1/8,{4}6,5-8[8:1],{8}2,4V28[16:3],
,7,{4}5h[400:99],{16}E7,E6,E5,E4,E3,E2,7,6,
5,4,3,2,1,8,7,6,{32}2x/5x-1[8:1],3x,{16}4x,,,{8}8xh,{32}7x,6x,{16}5x,
,,{8}1xh/4xh,{32},,,,2x/5x-1b[8:1],3x,{16}4x,,,{8}8xh,{32},,,,7x,6x,{16}5x,
2x,3,4,5,8x,7,6,5,2x,3,4,5,8x,7,6,5,
1x,2,3,4,7x,6,5,4,2x,3,4,5h[16:1],{32},,,,7x/4x-8[8:1],6x/3x,{16}5x/2x,
{32},,,,,,,,2x,3x,{16}4x,{32},,,,,,,,7x/4x-8b[8:1],6x/3x,{16}2x/5x,{32},,,,,,,,2x,
3x,{16}4x,,,8x,7,6,5,2x,3,4,5,8x,7,6,5,
2x,3,4,5,7x,6,5,4,1x,2,3,4,5x,6,7,8,
{4}5xh[16:1]/1xh[16:1],{32}2x/5x-1[8:1],3x/6x,{16}4x/7x,{32},,,,,,,,8x,7x,{16}6x,,,{8}1xh/5xh,
{32},,,,2x/5x-1b[8:1],3x/6x,{16}4x/7x,,,{8}8xh,{32},,,,7x,6x,{16}5x,1x,2,3,4,
7x,6,5,4,1x,2,3,4,7x,6,5,4,2x,3,4,5,
8x,7,6,5,4x,3,2,1,{8}8xh,{32}7x/4x-8[8:1],6x/3x,{16}5x/2x,{32},,,,,,,,2x,
3x,{16}4x,{32},,,,,,,,7x/4x-8b[16:3],6x/3x,{16}5x/2x,{32},,,,,,,,2x,3x,{16}4x,,,8x,
7,6,5,2x,3,4,5,8x,7,6,5,2x,3,4,5,
7x,6,5,4,1x,2,3,4,7x,6,5,4,1x,2,3s7>8-4b[8:13],4,
{1}5/6xz2<1-5[2:3],
,{32}6xqq8pp2[4:13]/3xpp1qq7[4:13],
5x/4x,{1},,,{4},,{16},,,{4}8h[8:7],
{8}1,,,7,,6pp5[8:5],,4h[8:5],
,,,,,,{4}2h[8:5],
{8}1,,,3,,4qq5[8:5],,6h[8:1],
,,,,{2}8w4[8:1],
{8}6,5,6-4[8:1],5,{4}6,{8}2,4,
3,5,4v3-1[8:3],6v7-5[8:3],{2}4,
{8}8,4,8-4[8:1],4,{4}8,{8}6,3,
7,2,8v7-5[8:3]*-4-2[16:5],1,{2}8,
{8}2,5,2>5[8:1],5-1[8:1],{4}2,{8}7,2,
6,3,5pp4[8:3]*>1[4:1],4,{2}5,
{8}8,4,1>4qq5[16:7],5,{4}1,7h[8:1],
{8}8,5,8,5,8,5,8,5,
{32}7/4,6,{16}5-8[16:23],,,{4}4,4,4,
4,4,4,4,
{32}7/3,6,{16}5-8b[16:23],,,{4}3,3,3,
3,3,{2}4-1[8:1]*-1[8:1],
{8}7/8,7,7/5,7,2/1,2,2/4,2,
6/5,6,6/8,6,4/3,3,3/1,3,
7/8x,{16}6,4x,5,3,{8}4x,2/1x,{16}3,5x,4,6,{8}5x-3-7-1b[2:1],
{4}8xh[8:1],7xh[8:1],6xh[8:1],5b/2bx,
{32}7/3,6,{16}5,{32},,,,7/4,6,{16}5,{32},,,,7/4>8[8:1],6/3>7[8:1],{16}5/2<6[8:1],,,{4}1xh[8:1],
{16}2,5,2,5,3,6,3,6,4-1[8:1],5,{8}3,7/4,5,
{32}2/6h[8:1],3,{16}4,{32},,,,2/6h[8:1],3,{16}4,{32},,,,2/5<1[8:1],3/6<2[8:1],{16}4/7>3[8:1],,,{4}8xh[8:1],
{16}8,7,6,5,2,3,4,5,1,2,3,4,5/1,6,7,8,
{32}2/1,3,{16}4,{32},,,,2/7,3,{16}4,{32},,,,2/5<1[8:1],3/6<2[8:1],{16}4/7>3[8:1],,,{4}8xh[8:1],
{16}7,4,7,4,6,3,6,3,5-8[8:1],4,7,2,{8}5,3,
{32}7/2h[8:1],6,{16}5,{32},,,,7/3h[8:1],6,{16}5,{32},,,,7/4>8[8:1],6/3>7[8:1],{16}5/2<6[8:1],,,{4}1xh[8:1],
{16}1,2,3,4,7,6,5,4,8,7,6,5,4/8,3,2,1,
{32}8/7b,6,{16}5,{32},,,,1/2,3,{16}4,{32},,,,7/4>6b[16:3],6/3>2<1<8<7[8:1],{16}5/2<1^8<7<6[8:1],,,{4}1xh[8:1],
{16}2,5,4,5,3,6,5,6,4v1[8:1],5,{8}3,7/4,6,
{32}2/6h[8:1],3,{16}4,{32},,,,2/5,3/6,{16}4/7,{32},,,,2/5<3b[16:3],3/6<7>8>1>2[8:1],{16}4/7>8>1>2>3[8:1],,,{4}8xh[8:1],
{16}7,6,5,4,1,2,3,4,1,2,3,4,5/1,6,7,8,
{32}1/2,3,{16}4,{32},,,,8/7,6,{16}5,{32},,,,2/5<3b[16:3],3/6^7>8>1>2[8:1],{16}4/7>8>1>2>3[8:1],,,{4}8xh[8:1],
{16}7,4,5,2,6,3,4,1,5v8[8:1],2,6,1,{8}5,3,
{32}7,6,{16}5,1,1h[8:1],,4,{32},,,,2,3,{16}4,7,7h[8:1],,5,,,{8}6b/4b,
{16}3,5,{8}2b,8b/1b,,6b/5b,{4}4b/3b>8b[8:1],
{32}7/D2f,6,5,4,,,,,{8}2x,{16}6,4,7-4[8:1],5,{8}8,3/7-1b[8:1],{16}2,2,
{8}7,3,8,{16}1,6,2-5[8:1],7,{8}3,8/2<7b[8:1],{16}6,6,
{8}2,5,2,{16}6,4,7-4[8:1],5,{8}8,4/7-2b[8:1],{16}2,2,
{8}7,4,8,{16}3,6,2>5[8:1],5,{8}1,6/2-6b[8:1],{16}8,8,
{8}2,7,5,{16}7,4,6-8[8:1],2,{8}5,6/1-5b[8:1],{16}3,3,
{8}1,2,4,{16}2,5,3-1[8:1],7,{8}4,3/8-4b[8:1],{16}6,6,
{8}8,7,5,{16}8,4,6<1[8:1],2,{8}5,6/1,3h[8:1],
{16}E3,E4,E5,E6,E7,E8,2,3,4,5,6,7,8,1/5h,2,3,
{32}7bx,6x,{16}5x,,,{8}4h/1h,{32}2bx/5bx,6x/3x,{16}7x/4x,,,{8}8h,5h,{32}7bx/4bx-1[8:1]*-8[8:1],6x/3x,{16}5x/2x,
,,,,{4}D1f/A1f/A8f,{16}7,2,7,2,8,3,8,3,
{32}7bx,6x,5x,4x,,,,,{8}1h[8:1],{32}8bx,7bx,6x,5x,,,,,{8}2h,2h[8:1],{32}1bx,8bx,7bx,6x,
{4}5x-1[8:1]*-2[8:1],B5f/E5f,{16}8,3,8,3,7,2,{32}7,2,,,6bx,
5x,{16}4x,{8}1h[8:1],{32},,,,5bx/2bx,6x/3x,{16}4x/7x,,,{8}8xh[16:1],{32}4b/7b,6x/3x,{16}5x/2x,,,{8}1xh[16:1]/4xh[16:1],
{32}5b/2b,3x/6x,{16}4x/7x,,,{8}8xh[16:1],{32}4b,3,2,1,8,7,6,5,{4}4h[8:1]/E1f/D1f,
{32}7b/3b,2/6,{16}5h[16:3]/1h[16:3],{32},,,,,,,,6b/2bq3[8:13],3b/7bp6b[32:51],{16}4b/8b,{1},,{2}5/4V25-1[4:5],
,7h[2:1],
,2/1-5-8-6b[4:5],
,3h[2:1],
,5/4V25-1-6-8[4:7],
,8,
,5-2-4[4:3]*-8-6[4:3],
E
