&title=リレイアウター(いよわRemix)
&artist=稲葉曇/いよわ
&first=0.062
&des=壊されたE&A
&lv_5=13+
&inote_5=(151)
{4},,,,3xh[4:1]/5<7-2<1>3-6>5[4:6],,3xh[4:1],,3xh[4:1],,4xh[4:1],,3xh[4:1]/4-1-6-1-4[4:6]b,,3xh[4:1],,3xh[4:1],,3xh[4:1],,{8}3xh[4:1],4,5,,4xh[4:1]/6xh[4:1],,,,6xh[4:1],5,4,,5xh[4:1]/3xh[4:1],,,,3xh[4:1],5,6,,2x/7x,,28,,1,1,1,1,1w5[8:1],,,,
{16}34,,3,4,2,7,5,6,4,,4,5,3,,3,4,2,,2,3,1-5[8:1],,2,,6<8[8:1],,7,,3,,4,,38,,7,1,6,,35,,2x,2x,4x,4x,1x,,6,,57,,7,5,6,,6,4,5,,5,3,4,,34,,
{8}2h[8:1]/4,,2h[8:1]/4,,{16}23,,,12,,,18,,{8}5/7h[8:1],,5/7h[8:1],,{16}67,,,78,,,18,,{8}2h[8:1]/4,,2h[8:1]/4,,{16}23,,,12,,,18,,{8}46,46,35,35,45,{24}6,4,5,3,,,{8}18,{4}
2-5[8:1]/7-4[8:1],,{8}46,3,46,3,4pp6[8:1]/6,,,,46,37,46,37,4>8[8:1]/6,,,,35,26,35,26,3>8[8:1],4,5,6,7<4[8:1],8,1,2,1w5[8:1],,,,
53,46,53,46,5qq3[8:1]/3,,,,64,53,64,53,6<2[8:1],,,,53,64,53,64,5<8[8:1]/3,4,3,2,1>4[8:1],8,7,6,
{4}Ch[4:1],,3xh[8:1],3xh[8:1],3xh[8:1],3xh[8:1],3xh[8:1],3xh[8:1],4/3xh[8:1],3xh[8:1],4/3xh[8:1],{8}3xh[8:1],,46,35,47,25,,4pp4[6:1]b*qq4[6:1]b,,,,{16},,{8}3b/7b,,12,3,13,4,78,6,68,5,82,3,71,6,34,2,18,7,56,7,18,2,35,6,78,6,35,2,18,18,
{4}2h[8:4],{32}B1,B2,B3,B4,B5,B6,B7,B8,{8},3,4,E7h[8:1],,4,4,4,53,5,53,5,2,4x,5,6xh[8:4],{32}A8,E8,B7,C,B1,B8,E7,E6,E5,E4,E3,E2,{8}E1h[8:4],,B6f,,B4f,,34,34,,2V83[4:1],,3,,6V85[4:1],5x,5x,,2V84[4:1],,4,,7-2[8:1],,4,,4x/8x,48,48,4x/8x,,26,2x/6x,,3x/7x,,5b/1b,5b/1b,,,1/8-5[8:1],,
{16}8b,,3,4,2,,6,5,7-1[8:1],,2,,3,,4,,37,,6,5,7,,3,4,2-8[8:1],,7,,6,,5,,62,,2,4,1,,7,5,8,,28,,1,,17,,3,4,2,5,1h[8:1],,7x,5x,6x,4x,5x,3x,4x,2x,8xb,,
7-5[8:1],,6,,3-1[8:1],,2,,7v4[8:1],,6,,3v8[8:1],,2,,7,,6x,6x,4x,4x,5x,,1,,27,,7,,38,,1-6[8:1],,2,,3-8[8:1],,4,,5,,6,,2,6,2,6,3x/7x,,3x/7x,,1x/5x,,1x/5x,,3xbv8[12:1]/7xbv4[12:1],,,,Cf,,,,
36,,3,4,2,7,5,6,4,,6,4,6,4,5,3,5,,3,6,3,,5,4,5-8[8:1],,6,,1-4[8:1],,2,,1,,6,5,6,,3,4,3,,5,4,5,,45,,4,6,4,6,4,6,4,6,3,5,3,5,3,5,3,5,
{8}2h[16:3]/4h[16:3],,2h[16:3]/4h[16:3],,24,2,1,8,5h[16:3]/7h[16:3],,5h[16:3]/7h[16:3],,57,7,8,1,2h[16:3]/6h[16:3],,2h[16:3]/6h[16:3],,26,3,4,5,6x-1[8:1],2x-5[8:1]b,6x,2x,,
45,45,45,{4}3h[4:1],5,3h[4:1],E5,3h[4:1],4,3h[4:1],E4,3h[4:1],6,3h[4:1],E6,3h[4:1],5,3h[4:1],{16}5x,4x,5x,4x,
{4}6h[8:1],4,6h[8:1]/4,E5,6h[8:1]/5,5,6h[8:1]/5,E6,{8}3h[8:1]/5,4,5,4,6h[8:1]/5,4,5,4,3h[8:1]/5,4,5,4,6h[8:1]/5,4,C,,
{16}3bh[8:1],,5h[8:1],,4h[8:1],,6h[8:1],,3,3,5,5,4,4,6,6,2bh[8:1],,4h[8:1],,3h[8:1],,5h[8:1],,2,2,5,5,4,4,7,7,1bh[8:1],,4h[8:1],,3h[8:1],,6h[8:1],,2,2,3,3,4,4,5,5,1bh[8:1],,5h[8:1],,3h[8:1],,7h[8:1],,1,1,8,8,7,7,6,6,4b,5,4,5,3,4,3,4,2b,2,1,1,8,8,7,7,1b,6,1,6,2,7,2,7,3b,3,4,4,5,5,6,6,1b,8,2,7,1b,8,2,7,3b,3,6,6,4b,4,5,5,
1xb-3[16:1],,1x-5[16:1],,1xb-4[16:1],,1x-6[16:1],,1xb-3[16:1]b,,1x-7[16:1]b,,1xb-5[16:1]b,,1xb,,
{4}1xb,{32}A6,A5,A4,A3,A2,A1,A8,A7,{8}6x<2<6[8:6],,Ch[8:1],,,3,3,3,4x>1[8:2],5,6,7,8<4[8:2],,4<2[8:3]b,,,,,B4/B3/E4h[4:2],,E1f,,E7f,,3,4,5,6x>7[4:3],,,2,2xh[4:1],,,,3x<2[8:5],,,7,7xh[4:1],,,,
{24}3xb,4x,,6xb,5x,,2xb,3x,,7xb,6x,,1bx,2x,,,,,6,4,6,4,,,3,5,3,5,,,2b/6b,,,2b/6b,,,,,,,,,,,,,,,
{4}6h[4:1],,5h[4:1],,4h[4:1],,3h[4:1],,
(146)4h[4:1],(121),(116)5h[4:1],(91),(71)56,(58)45,(48)3/4h[4:1],(302){12}3,2,1,8,7,6,5,4,3,
(151){16}2b/6b,,3,4,2,,6,5,7-1[8:1],,2,,37,,4,,37,,6,5,7,,3,4,2-8[8:1],,7,,62,,5,,62,,2,4,1,,7,5,8,,38,,1,,16,,3,4,2,5,1h[8:1],,7,5,6,4,5,3,4,2,8b,,
7-5[8:1]/3,,6,,3-1[8:1]/7,,2,,7v4[8:1]/3,,6,,3v8[8:1]/7,,2,,7,,6,6,4,4,5,,1,,26,,7,,48,,1-6[8:1],,2,,1/3-8[8:1],,4,,35,,6,,2,6,2,6,3b/7,,3b/7,,1b/5,,1b/5,,3bv8[12:1]/7bv4[12:1],,,,Cf,,,,36,,2,4,1,7,5,6,4,,3,5,4,6,5,7,1,,2,6,2,,5,3,5-8[8:1],,7,,1-4[8:1]/5,,3,,15,,6,5,7,,2,1,3,,5,4,5,,45,,2,6,3,5,2,6,3,5,3,7,4,6,3,7,4,6,
{16}2h[16:3]/5h[16:3],,,,25,,2,4,1,7,5,8,2,,18,,7h[16:3]/4h[16:3],,,,74,,7,5,8,2,4,1,7,,81,,2h[16:3]/4h[16:3],,,,24,,2,3,1,7,6,8,2,,18,,47,,47,,25,,25,,45,,{24}6,4,5,3,,,18,,,
{4}2b-6>1[8:8]/7b-1<5[8:8]b,,,,,,
{8}1-5[8:1],6<1[8:1],1>4[8:1],6,5w1[8:1]b,,,,8-6[8:1],4-8[8:1]b,8-2[8:1]b,4,6,6-2[8:1],5,6,3,3-7[8:1],4,3,5w1[8:1],,,,1-5[8:1],6<1[8:1],1>4[8:1],6,5w1[8:1]b,,,,8-4[8:1],3>8[8:1],8<5[8:1],3,4w8[8:1]b,,,,2v5[8:1],1<6[8:1],2,1,3-7[8:1]b,6-3[8:1],3-8[8:1],6,1w5[8:1]b,,,,
{8}2h[8:1]/1,1,2h[8:1]/1,1,2h[8:1]/8,8,2h[8:1]/7,7,7h[8:1]/8,8,7h[8:1]/1,1,7h[8:1]/2,2,{8}5,4,3h[8:1]/1,1,3h[8:1]/8,8,3h[8:1]/7,7,4,5,6h[8:1]/8,8,6h[8:1]/1,1,6h[8:1]/2,2,
{8}45,6,3-1[8:1]/5,4,35,,6-8[8:1]/4,5,64,,24,35,46,57,{8},8,7,6,5-1[12:1]/A2h[8:11],,,,8-4[12:1],,,,B6/B7/E7f,E5f/B4/B5,B2/B3/E3f,Cf,,E
