&title=白と黒のバケモノ
&artist=テヅカ
&first=0.05
&lv_5=14
&des_5=7A1R175U
&inote_5=
(205){4},,,,{1}2pp5[4:13],
,6<1[4:5],
{4},,,7-4[8:1],
{8}7/3,3,3,3,3,3,3,4/2h[8:3],
{4},{8}6,{16}6,5,{8}7,8/1,{4}1/8-4[8:1],
{2}3h[4:1],{16}4h[8:1]/6h[8:1],{8},{16}3h[8:1]/5h[8:1],{8},4/2h[4:1],
{16}1,8,7,6,5h[8:1]/3h[8:1],{8},{16}6h[8:1]/4h[8:1],{8},5/7h[4:1],{16}8,1,2,3,
4h[8:1]/6h[8:1],{8},{16}3h[8:1]/5h[8:1],{8},4/2h[4:1],{16}1,8,7,6,{4}3/5-1[8:1],
5/7,{12}3,4,3,{4}2/5,{16}5h[8:1]/3h[8:1],{8},{16}6h[8:1]/4h[8:1],
{8},5/7h[4:1],{16}8,1,2,3,4h[8:1]/6h[8:1],{8},{16}3h[8:1]/5h[8:1],{8},4/2h[4:1],
{16}1,8,7,6,{8}5/3,{16}2,1,{8}2,{16}7,8,{8}7,{16}3,4,
{8}3,5/2-5[8:1],,2,7,{16}6,4,6,4,{8}5,
{4}1b,{8}7/4,{16}6,5,{8}6,7<4[8:1],8,1/7,
,3-1[8:1],5,3,8,8,{16}7,5,{8}7,
6/4,3,2/5,{16}3,4,{8}3,2>5[8:1],1,2/8-4[8:1],
,8,,5,6,7,{16}8,1,{8}8,
7/2,6/3,{4}5h[4:7]/4h[4:7],,,,,,,,{8}6/2,
{16}3,3,{8}4,{16}6,5,{8}7,{16}8,8,
{12}2,1,2,8/3,{24},{8}8/3,{16}2,4,{8}2,5/1,6-4[8:1],
4-8[8:1],6,{4}2h[8:3],{8},1,{4}1-3-5[4:1],
{8},6,6,7,7,8,{4}8v6[8:1],
{8}2>5[8:1],3,{4}2,{8}6<1[8:1],7,{4}6,
{8}5,5h[4:1],7,7h[4:1],4,4,{4}6-8[8:1]/5-1[8:1],
6/5,{8}2,2-4[8:1],1,2,6,6-8[8:1],
5,6,{4}2pp4[8:1],{8}8,7,{4}6-3[8:1],
6/3,5/2-5[8:1],2/7-4[8:1],7/3-8[8:1],
3/6-1[8:1],{8}6,2,3,{16}4,5,4,5,{8}3/6,
7,8,{4}2/1-6[8:1],4-8[8:1],{8}5,5v6[8:1],
,1,1,2,2,3,{4}3/5-8[8:1],
{8}5,2,{4}2v5[8:1],{8}7,7-1[8:1],,4-6[8:1],
,3,2,1-3[8:1],,6-8[8:1],,4h[8:3],
{4},{8}1,8,7,6v8[8:1],,2>4[8:1],
1,2,,7,{4}7-1[8:1],5,
{8}6/4,{16}3,5,{8}3,2/6,{16}4,4,{8}5,3/7,{16}5,5,
{8}4,6/2,1-5[8:1],7-3[8:1],1,7,{4}4h[4:1],
{16}7,5,7,5,{8}6,{16}3,4,{8}2,5-7[8:1],1,5,
2,{16}1,8,{8}1,7/2,3/8,{16}6,5,{8}6,7/4,
6/3,{16}4,4,{8}5,6/2,5/3,{16}7,1,{8}7,8/2,
1/3,{16}2,4,{8}2,{16}7,4,{24}6,5,6,5,{48},{16}7,4,7,{8}4,
6/3,{24}2,4,2,{16}4,3,5,3,5,3,{8}5,{4}2-4[8:1]/4-6[8:1],
2/4-8[8:1],7,{8}1,2,{4}3-8[8:1]/7-4[8:1],
3/7,{8}5,6,{16}7,8,7,8,{8}6/1,6/1,
{16}3,4,{8}3,5/2,{16}6,3,{8}6,7/4,{16}7,6,5,4,
1,2,3,4,{8}8,8,{16}6,5,{8}7,8/4,8/4,
7/3,7/3,6/2,{16}3,5,{8}3,5-7[8:1]/3-1[8:1],5/3,5/3,
,8-4[8:1],,8,3,{16}6,5,{8}7h[8:1],{16}4,5,
{8}3h[8:1],{16}5,4,{8}6h[8:1],{16}3,4,{8}2h[8:1],{16}8,1,{8}7,7/3,
4,5,6,7,8,1,2,{16}4,3,
4,3,{8}5/2,,6/5,{4}7/4,{8}8/1,2/7h[2:1],
,,,6-1[8:1],8,6,4-8[8:1],3-1[8:1],
4,3,7,7<4[8:1],,7/8,1,2pp8[4:1],
,2,{4},{8}6,7/1-3[8:1],,1-5[8:1],
5-2[8:1],1,6,7,8,1,2,3/4-7[8:1]*-1[8:1],
,4,,8,7,6/4,{16}3,5,{8}3,
{4}4/2>5[8:1],{8}2/1,8-6[8:1],,8-4[8:1],4-7[8:1],8,
2,1pp5[8:3],{4},{8}6,7,{4}8-6[8:1],
{8}8,5,{4}5-1[8:1],5/2-4[8:1],{8}2-8[8:1],7,
2,6,4-8[8:1],5-7[8:1],4,5,{16}1,2,3,4,
7,6,5,4,{8}2,2,{4}1-4[8:1],1/7-4[8:1],
{8}7,3qq5[8:3],,3,6,6,7,7,
1,1,{4}8/2-5[8:1],{8}2,8-4[8:1],,8/3-8[8:1],
,3/7h[8:3],{4},{16}8,6,8,6,1,7,1,7,
{4}2>5[8:1],{8}2,7-4[8:1],8,7,1-5[8:1],6,
1,7h[8:3],{4},5,{8}7/4,{16}6,5,
{4}8-4[8:1],{8}8,2,{16}3,5,{8}3,6/4,{16}7,5,
{8}7,8/6,,{16}3,4,{8}3,5/2,1-5[8:1],7-3[8:1],
1,7,{4}4h[8:7],{8},,,,,5h[2:1],
,,,{16}3,4,{8}2,7/1-5[8:7],
{4},6h[4:3],,,,{16}5h[8:1]/3h[8:1],
{8},{16}6h[8:1]/4h[8:1],{8},5/7h[4:1],{16}8,1,2,3,
4h[8:1]/6h[8:1],{8},{16}3h[8:1]/5h[8:1],{8},4/2h[4:1],{16}1,8,7,6,5h[8:1]/3h[8:1],{8},{16}6h[8:1]/4h[8:1],
{8},5/7h[4:1],{16}8,1,2,3,{4}6/4-8[8:1],4/2,
{12}6,5,6,7/4,{6},{16}4h[8:1]/6h[8:1],{8},{16}3h[8:1]/5h[8:1],{8},4/2h[4:1],
{16}1,8,7,6,5h[8:1]/3h[8:1],{8},{16}6h[8:1]/4h[8:1],{8},5/7h[4:1],{16}8,1,2,3,
{8}4/6,{16}7,8,{8}7,{16}2,1,{8}2,{16}6,5,{8}6,7/4,
,{16}7,7,5,4,3,2,8,7,6,5,3,2,1,8,
{8}5,5h[4:1],,{16}3,4,{8}2-5[8:1],1,2,6,
{16}7,8,{8}7,{16}4,6,4,6,{8}5-1[8:1],7<4[8:1],5,7,
{4}2,{16}3,4,{8}3,2/5,2/5w1[8:1],,5,
,4<7[8:1],3,4/2,1,1,{12}7,8,7,
{8}6/1,1/6,{16}3v8[8:1],4,2,5,{8}3,7<4[8:1],1,7,
2,3,{16}5,5,{8}4,6/2,{16}4,4,{8}5,3/7,
2-4[8:1],1,{16}2-8[8:1],5,{8}5,2,6,6,{16}3,4,
{8}2v5[8:1],5,2/6-1[8:1],7,{4}6/3,{8}7/4,{16}6,5,
{8}6,4/7h[4:1],,{16}3,3,{8}4,5/2>5[8:1],{16}8,8,{8}2,
{16}6,6,{8}3,{16}7,1,7,1,{8}8-4[8:1],2,{4}8-6[8:1]*-5[8:1],
8,{16}3,4,{8}3,5/2,6/3,{16}1,8,{8}7/2>4[8:1],
,2,8<6[8:1],1,8,3,{16}5,4,{8}5,
6/3,3/6h[4:1],,{16}3,4,{8}2,8/1,{16}6,5,{8}7,
{16}4,3,5,2,6,5,7,4,{8}8w4[8:1],1,{4}8,
{8}2>5[8:1],1,8,7>2[8:1],6,5,4<7[8:1],3,
2,1>4[8:1],8,7,{16}6h[16:3],{8},{16}5h[16:3],{8},4h[8:1],
{4}3b<6[1:1],{2},{4}2,
1,8,{2}7>2[1:1],
{4},6,5,4,
3<6[1:1],{2},{4}2,
1,8,{2}7>2[1:1],
{4},6,5,4,
{12}3h[6:1],{3},{12}4,{6}5,{12}3,4-2[8:1],{6},{4}4/5,
6,{12}6h[6:1],{3},{12}5,
{6}4,{12}6,5-7[8:1],{6},{4}5/4,3,
{12}3h[6:1],{3},{12}4,{6}5,{12}3,4-2[8:1],{6},{4}4/5,
6,{12}6h[6:1],{3},{12}5,
{6}4,{12}6,5-7[8:1],{6},{4}5/4,3,
{6}3h[6:1],4,{12},4,{4}5,4/3,
5/4,6/5,{12}7h[12:5]/4h[6:1],{3},{12}5,
{4}6,6/4,{6}5/3h[4:1],{12}4,4,{6},7h[12:5],
5h[12:1],{12},4,{6}6h[4:3],5h[12:1],,{4}4,
3,5/2,6/3,
7/4,5/7h[4:3],{6},{3}5,
{1}2q4[4:3],
{4}7,6,{2}5pp8[4:3],
,{4}4,3,
{2}2>5[4:3],{4}1,8,
7,6,{2}6h[4:3]/5h[12:5],
E
