&title=雪降り、メリクリ
&artist=A-39
&first=-0.6199997
&des=磷化锆
&des_5=磷化锆
&lv_5=14
&inote_5=(180){4},,,,(90){1}6v3v8v5v2v7v4v1b[2:7]/2bv7v4v1v6v3v8v5[2:7],
{4},,,,,,,,,,,,(180)2h[4:1],
8,{8},2,{4}2/4,
3h[4:1],1,{8},7,{4}7/5,
4h[4:1],6,{8},2,{4}2/4,
5h[4:1],3,{8},7,{4}7/5,
1h[4:1],3-1[8:1],{8},7,{4}7,
8h[4:1],6-8[8:1],{8},2,{4}2<3b[4:3],
2,6h[4:1],{8},8,{4}8,
6h[4:3]/2h[2:1],{16},,,,,,,,4,5,4,5,
{8}3,3h[8:1],4,5h[4:1],3,4,6/4,7,
8/4,3,2/8V24-6[16:5],2h[8:3],,,,,1/7,
7h[8:1],5,4h[4:1],6,5,3/5,2,
1/5,6,7/1-3v4[4:1],8,{2}8v7-5[4:1],
{8}2,2h[8:1],5,6h[4:1],2,3,7/3,7,
8/2,2,3h[8:1],4,{16}5h,4h,{8}6h,7h[8:1],5,
8,8h[8:1],6,6h[8:1],4,4h[8:1],2,{16}2,5,
{8}1v4[8:1],1,8<5[8:1],8,3x-7[8:1],2x,{4}3x/1h[8:1],
{8}2,2,7xh[8:1],{16}4,6,{8}3,5h[8:1],{16}2x,4,{8}2,
{16}6,4,{8}6,7x>2b[16:3],8,{4}7>5[4:1],7x,
{8}6,6,4xh[8:1],{16}8,3,{8}7,1h[8:1],{16}7x,5,{8}7,
{16}3,5,{8}3,3x<6[16:3],4,{4}3<1b[4:1],3x,
{8}2,2,8xh[8:1],{16}4,7,{8}3,5h[8:1],{16}2x,4,{8}2,
6,6,8xh[8:1],{16}7,1,{8}6,3h[8:1],{16}7x,5,{8}7,
3,3,5xh[8:1],{16}2,6,{8}3h[8:1],7,8xh[8:1],{16}3,7,
{4}1b,2b,{2}3bw7b[8:1],
{4}1qq6[8:5]*-3b[8:1],1,4x-2[8:1],4V68-5[8:5],
{8}2,3,{4}4-1[8:1],4bxV61[4:1],1xz5-7[8:3]*s5-3[8:3],
,,1xpp4[8:5]*-7b[8:1],1,
{8}6,7,{4}8V64[8:3],{2}3x-5[8:1],
{4}8qq5[8:5]*>3b[8:1],8,{2}4xV28v2[2:1],
{8}6,5,{4}4-7[8:1],{6}4x/D1/A8/E1,{96}A2/E3/B2,,,,,,,,,,,D4/E4/A4,{16},,,{64},{192},{2}8-3b[8:1]*s4-7-1[8:5],
2x-8v3[4:1],
{4}7xh[8:1],6xh[8:1],{8}5/3x,4,3/5x,{16}3,4,
{4}2V84>3-1[8:5],{8}7-5[8:1],6,{4}7x,5xh[8:1],
4V68[4:1],{8}3<4-6-2-8<7b[2:1],2,{4}3x,5v6-8V24[2:1],
5x,4xV68[4:1]*-1b[8:1],{8},,1x,2,
7/3V17-5-3[8:5],6,{4}5V71b[8:3],,,2x-4[8:1],
2x/1V75[8:3],{8}5,4,3xV57b[8:3],2,
1,2,3,4,{6}5x/D1/A8/E1,{96}B2/B3/E3,,,,,,,,,,,B6/E6/A6,{16},,,{64},{192},{4}2v3-5[4:1],
2/6h[8:1],{8}E7,E8,E1,E2,
E5,E4/E8,E3/E7,E2/E6,E1,E8,E7,E6,
{1}E5f/Ch[4:15],
,B2h[4:7]/B7h[4:7],
{8},,,,,,,,1h[8:1],
5,2h[8:1],6,3h[8:1],7,4h[8:1],8,
3h[8:1],7,2h[8:1],6,1/5,2/6,7/3h[8:1],8,
4,3,2,1,{16}8h,7,6,5,4,3,2,1,
{4}8bV64[4:1],8/1,{8}1-5[8:1],6,{4}1b/7,
8h[16:3],{16}4,6,5,5,4,6,5,5,4,6,5,5,
4,6,5,5,4,6,5,5,{8}4x,3x,{4}6x/2x,
{16}5,3,4,4,5,3,4,4,5,3,4,4,5,3,4,4,
5,3,4,4,5,3,4,4,{4}5b/C,3b/C,
2h[16:3],{16}5,4,4,4,5,4,4,4,5,4,4,4,
5,4,4,4,5,4,4,4,{8}5x,6x,{4}3x/7x,
{16}5,6,6,6,5,6,6,6,5,6,6,6,5,6,6,6,
{8}5,4,3/6-4[8:1],7,{2}6b/2q4[4:1],
{4}8bxh[16:3],{16}4x,7,3,3,6x,4,5,3x,4,3,{8}6x,
{16}7x,5,8,8,4x,7,3,3,{8}6x,5/2x,{4}5x/2,
1bxh[16:3],{16}4x,2,5,5,3x,6,4,4,7x,5,7x,4,
8x,4,{8}8,{16}3-1[8:1],5,{8}3,6bx,5h,5h,6h,
{4}7bxh[16:3],{8}4xh[16:1]/8h[16:1],7xh[16:1]/3h[16:1],{16}2xh[8:1]/6h[8:1],,,3h[8:1]/5xh[8:1],,,{8}5h[8:1]/3xh[8:1],
,2h[16:1]/6xh[16:1],6h[16:1]/2xh[16:1],5x/3,{16}4xh[8:1]/6h[8:1],,,6xh[8:1]/4h[8:1],,,{8}7h[16:1]/3xh[16:1],
{1}2bx-6-8v3-5v4[8:13]`6b-2-8v5-3v4b[8:13],
{2},,(90)3xh[4:1]/5x<7[8:1],
6h[4:1]/4>2[8:1],
{16}5/3h[16:3],,,6,,3,,,{2}5/4h[4:1],
3h[8:3]/6>4[8:1],6h[8:3]/3<5[8:1],
{4}6>2[4:1],2<4[8:3],{2}1>3[8:1],
(180){8}6h[8:3],,,4,,,{4}3/7,
{8}2h[8:3],,,4,,,{4}1/5,
7h[8:5],3h[8:3],,,2h[2:1]/6h[2:1],
{32},,,,,,,,,,,,,,,,D3/C,A3,D4,A4,D5,A5,D6,A6,
{4}8h[8:1]/D7,7h[8:1],6h[8:1]/C,5h[8:1],
4h[8:1]/A5,3h[8:1]/A6,2h[8:1]/A7,1h[8:1]/A8,
{8}2,2/6,3,3/5,4,3/5,6,4/7h[8:9],
{1}3bh[4:3],
{2}1b,{8}6h[8:1],5h[8:1],4h[8:1],3h[8:1],
{16}5-7[8:1],,,4,{8}5,3,{16}2/8-4[8:1],,,1,{8}8,2,
{16}3-1[8:1],,,4,{8}3,5,{16}6/8-4[8:1],,,7,{8}8,6h[8:1],
{16}5-7[8:1],,,4,{8}5,3,{16}6/4-6[8:1],,,3,{8}4,2,
{16}3-1[8:1],,,5,{8}3,6,{4}7h[4:1],{8}5,4/8,
{16}7/3-1[8:1],,,4,{8}3,5,{16}6/8-4[8:1],,,7,{8}8,6,
{16}5-7[8:1],,,4,{8}5,3,{16}2/8-4[8:1],,,1,{8}8,2,
3-8[8:1],3,4/3,5,6-1[8:1],6,6/5,4,
3h[16:1],3h[16:1],2bh[16:1],2bh[16:1],{16}3,4,{8}3,{16}5,4,6,5,
{8}7b-5[8:1],{16}7,8,{8}7,1h,2/4-8[8:1],{16}4,3,{8}4,2,
1-3[8:1],{16}1,7,{8}1,6h[8:1],{24}3b,2,1,8,7,6,3,2,1,8,7,6,
{8}4-2[8:1],{16}4,5,{8}4,6h,7/1-5[8:1],{16}1,8,{8}1,7h,
6-8[8:1],{16}6,5,{8}6,3h[8:1],{24}7b,6,5,4,3,2,7,6,5,4,3,2,
{8}8-5[8:1],{16}8,1,{8}8,2h,3/4-7[8:1],{16}4,2,{8}4,1h,
8-3[8:1],{16}8,7,{8}8,6h,5/4-1[8:1],{16}4,5,{8}4,6h,
7bx,8/4bx,7bx/3,2,2/6bx,7,1/8bx-6[8:1],1bx-5[8:1],
8bx-4[8:1],1bx-3[8:1],8bx<6[8:1],1xp5[8:1],8>6b[4:1],1,{4}8,
{1}1b,
{8},,,,,,,,(90)4/6h[4:1],
4,{4}4,{8}5/3h[4:1],5,{4}5,
{8}4/7h[8:1],4,{16}3,6h[16:1],{8}3,{2}2/5h[4:1],
{8}4/2h[4:1],4,4,{16}4,4,{8}4/1h[4:1],5,5,{16}5,5,
{8}7/3h[4:1],7,6,5,{2}1h[4:1]/4>5[0.6667##4],
{16}7,8,1>5b[8:7],3b,
E
